<?xml  version="1.0" encoding="UTF-8"?>
<!DOCTYPE svg PUBLIC "-//W3C//DTD SVG 1.0//EN" "http://www.w3.org/TR/2001/REC-SVG-20010904/DTD/svg10.dtd" >
<svg xmlns="http://www.w3.org/2000/svg" >
<metadata>
<version>1.0</version>
<id><![CDATA[Georgia Pro W02 Italic]]></id>
<vendor>Monotype Imaging Inc.</vendor>
<credits>
<name>Fonts.com WebFonts</name>
<URL>http://webfonts.fonts.com</URL>
<role>Home of the Web fonts</role>
</credits>
<license>
<URL>http://webfonts.fonts.com/Legal</URL>
</license>
<copyright><![CDATA[© 2011 Microsoft Corporation. All Rights Reserved.]]></copyright>
<trademark><![CDATA[Georgia is a trademark of Microsoft Corporation.]]></trademark>
<licensee>
<name></name>
</licensee>
</metadata>
<defs >
<font horiz-adv-x="1167" id="07208e7b-e1be-4b16-8408-a4dd7f1b8e5c">
<font-face font-family="" panose-1="2 4 5 2 5 4 5 9 3 3" ascent="1870" descent="-455" units-per-em="2048" alphabetic="0">
</font-face>
<missing-glyph horiz-adv-x="0" />

<glyph unicode="&#xA;" />
<glyph unicode="&#xD;" horiz-adv-x="0" />
<glyph unicode=" " horiz-adv-x="494" />
<glyph unicode="!" horiz-adv-x="678" d="M367 432H289Q323 667 362 989L391 1213Q406 1327 423 1365T478 1430T565 1456Q668 1456 668 1356Q668 1310 630 1204T367 432ZM272 -20Q216 -20 176 19T135 115Q135 171 175 211T272 252Q328 252 369 212T410 115Q410 58 370 19T272 -20Z"  />
<glyph unicode="&quot;" horiz-adv-x="844" d="M731 967H670Q674 1070 676 1256L677 1372Q679 1445 715 1487T815 1530Q907 1530 907 1442Q907 1410 798 1143Q766 1064 731 967ZM354 967H295L300 1357Q300 1435 336 1482T440 1530Q532 1530 532 1442Q532 1406 480 1280Q384 1050 354 967Z"  />
<glyph unicode="#" horiz-adv-x="1317" d="M1180 745H948L854 494H1114L1087 371H809L670 0H557L696 371H479L342 0H229L369 371H156L182 494H416L510 745H248L276 868H555L692 1231H803L666 868H883L1020 1231H1130L993 868H1208L1180 745ZM618 748L522 492H743L842 748H618Z"  />
<glyph unicode="$" horiz-adv-x="1249" d="M1012 1130Q976 1214 842 1223L731 739Q932 668 1008 591T1085 408Q1085 235 938 113T555 -18L494 -299H401L469 -20Q304 -12 204 62T104 250Q104 322 142 372T238 422Q342 422 342 334Q342 283 266 176Q308 67 483 55L604 578L536 605Q380 663 323 733T266 899Q266 1067 413 1181T770 1296L821 1524H913L858 1296Q1012 1281 1097 1212T1182 1053Q1182 993 1150 949T1067 905Q958 905 958 989Q958 1018 997 1099L1012 1130ZM754 1221Q612 1221 532 1155T451 975Q451 907 485 861T647 764L754 1221ZM688 555L571 53Q725 53 810 129T895 332Q895 425 835 477T714 546Q699 550 688 555Z"  />
<glyph unicode="%" horiz-adv-x="1673" d="M465 713Q331 713 259 787T186 991Q186 1176 304 1314T606 1452Q737 1452 811 1377T885 1171Q885 977 765 845T465 713ZM594 1386Q487 1386 420 1266T352 967Q352 780 479 780Q582 780 651 904T721 1196Q721 1386 594 1386ZM217 0H74L1530 1423H1675L217 0ZM1141 -31Q1008 -31 934 43T860 248Q860 434 980 571T1282 709Q1414 709 1486 634T1559 428Q1559 235 1441 102T1141 -31ZM1268 641Q1161 641 1094 519T1026 221Q1026 37 1155 37Q1256 37 1325 161T1395 453Q1395 641 1268 641Z"  />
<glyph unicode="&amp;" horiz-adv-x="1454" d="M1524 834Q1423 820 1369 798T1285 743T1150 563Q1025 387 944 305Q1025 180 1085 131T1317 66L1300 0H915L803 180Q567 -35 369 -35Q212 -35 115 53T18 285Q18 435 121 554T449 788Q350 966 350 1079Q350 1243 469 1347T758 1452Q884 1452 955 1386T1026 1217Q1026 1090 940 997T649 807Q798 528 905 360Q994 457 1069 580T1145 758Q1145 799 989 834L1006 899H1540L1524 834ZM618 862Q893 991 893 1212Q893 1370 743 1370Q646 1370 589 1302T532 1139Q532 1033 618 862ZM764 236Q572 553 479 731Q240 601 240 352Q240 236 301 167T469 98Q625 98 764 236Z"  />
<glyph unicode="&apos;" horiz-adv-x="440" d="M342 967H281Q285 1070 287 1256Q288 1378 296 1421T337 1497T426 1530Q518 1530 518 1442Q518 1410 409 1143Q377 1064 342 967Z"  />
<glyph unicode="(" horiz-adv-x="768" d="M895 1450Q627 1397 461 1029T295 221Q295 -204 559 -254L543 -328Q334 -303 220 -142T106 289Q106 772 331 1126T909 1532L895 1450Z"  />
<glyph unicode=")" horiz-adv-x="768" d="M-90 -328L-76 -248Q191 -195 357 173T524 983Q524 1407 260 1458L276 1532Q487 1505 600 1344T713 915Q713 432 488 78T-90 -328Z"  />
<glyph unicode="*" horiz-adv-x="967" d="M641 1083Q678 1029 789 910Q846 849 846 811Q846 784 823 765T770 745Q738 745 720 770T675 890Q647 986 610 1067Q580 1001 546 890Q515 790 499 768T449 745Q421 745 398 764T375 811Q375 849 432 910Q543 1029 580 1083Q497 1075 329 1035Q302 1028 287 1028Q213 1028 213 1100Q213 1169 287 1169Q302 1169 329 1163Q514 1122 580 1116Q538 1177 432 1290Q375 1351 375 1389Q375 1414 397 1434T449 1454Q483 1454 499 1432T546 1311Q580 1201 610 1135Q648 1219 675 1311Q701 1399 718 1426T770 1454Q799 1454 822 1435T846 1389Q846 1351 789 1290Q683 1177 641 1116Q698 1121 892 1163Q919 1169 934 1169Q1008 1169 1008 1100Q1008 1028 934 1028Q919 1028 892 1035Q717 1076 641 1083Z"  />
<glyph unicode="+" horiz-adv-x="1317" d="M748 498V45H621V498H170V623H621V1073H748V623H1198V498H748Z"  />
<glyph unicode="&#x2c;" horiz-adv-x="553" d="M43 -354L12 -287Q244 -163 295 2H248Q127 2 127 113Q127 169 168 210T274 252Q414 252 414 98Q414 -30 315 -149T43 -354Z"  />
<glyph unicode="-" horiz-adv-x="766" d="M676 469H80L115 621H711L676 469Z"  />
<glyph unicode="." horiz-adv-x="553" d="M262 -20Q205 -20 166 19T127 115Q127 171 166 211T262 252Q318 252 358 212T399 115Q399 57 359 19T262 -20Z"  />
<glyph unicode="/" horiz-adv-x="961" d="M23 -424H-117L915 1524H1055L23 -424Z"  />
<glyph unicode="0" horiz-adv-x="1153" d="M471 -33Q279 -33 176 89T72 436Q72 813 259 1129T754 1446Q931 1446 1033 1321T1135 979Q1135 618 966 293T471 -33ZM922 1063Q922 1370 748 1370Q538 1370 412 998T285 367Q285 186 331 115T477 43Q683 43 802 430T922 1063Z"  />
<glyph unicode="1" horiz-adv-x="1153" d="M74 0L88 66Q283 74 326 97T383 182L641 1268H358L377 1346H477Q682 1346 813 1446H895Q861 1321 836 1215L598 203Q592 177 592 162Q592 116 633 94T846 63L829 0H74Z"  />
<glyph unicode="2" horiz-adv-x="1153" d="M942 0H-2L31 135Q34 149 133 272T494 582Q732 748 804 874T877 1141Q877 1246 821 1307T674 1368Q520 1368 451 1278Q455 1234 455 1184Q455 1012 307 1012Q209 1012 209 1098Q209 1232 360 1339T692 1446Q879 1446 985 1356T1092 1108Q1092 949 996 818T590 516Q276 342 170 174H983L942 0Z"  />
<glyph unicode="3" horiz-adv-x="1153" d="M725 772L719 756Q859 740 937 668T1016 483Q1016 264 831 118T383 -29Q221 -29 117 43T13 219Q13 288 51 336T150 385Q256 385 256 299Q256 250 214 170Q204 151 197 135Q260 49 418 49Q570 49 686 174T803 500Q803 690 566 690H430L457 801H545Q695 801 788 905T881 1178Q881 1364 697 1364Q570 1364 484 1278Q484 1151 478 1114T434 1042T326 1008Q238 1008 238 1096Q238 1219 385 1330T746 1442Q916 1442 1005 1364T1094 1161Q1094 1027 998 923T725 772Z"  />
<glyph unicode="4" horiz-adv-x="1153" d="M1073 436H864L762 0H569L672 436H29L70 596L950 1440H1096L893 563H1104L1073 436ZM166 563H700L854 1223L166 563Z"  />
<glyph unicode="5" horiz-adv-x="1153" d="M1118 1243H483L346 817Q498 911 641 911Q800 911 909 821T1018 573Q1018 328 828 155T389 -19Q231 -19 126 50T20 221Q20 284 58 332T156 381Q264 381 264 295Q264 247 224 171Q214 152 207 135Q263 59 412 59Q565 59 685 204T805 555Q805 664 741 733T569 803Q392 803 266 672L201 698L438 1419H1161L1118 1243Z"  />
<glyph unicode="6" horiz-adv-x="1153" d="M1054 1456V1362L964 1352Q922 1347 793 1286T542 1091T354 770Q536 909 737 909Q881 909 978 807T1075 549Q1075 312 906 141T501 -31Q309 -31 198 90T87 426Q87 802 357 1098T1054 1456ZM337 672Q294 540 294 387Q294 45 520 45Q660 45 761 185T862 520Q862 650 800 724T632 799Q474 799 337 672Z"  />
<glyph unicode="7" horiz-adv-x="1153" d="M1294 1354L254 -18H123L1104 1255H633Q480 1255 433 1245T346 1188T262 1028H197L287 1419H1309L1294 1354Z"  />
<glyph unicode="8" horiz-adv-x="1153" d="M812 745Q1060 626 1060 428Q1060 241 887 103T460 -35Q264 -35 149 58T34 297Q34 590 425 731Q231 855 231 1028Q231 1197 392 1326T771 1456Q940 1456 1043 1371T1146 1151Q1146 890 812 745ZM749 780Q846 838 900 943T954 1163Q954 1264 898 1323T743 1382Q608 1382 519 1296T429 1083Q429 982 505 915T749 780ZM489 696Q233 569 233 303Q233 184 305 113T497 41Q657 41 758 135T860 369Q860 466 782 535T489 696Z"  />
<glyph unicode="9" horiz-adv-x="1153" d="M141 -41V56L235 66Q289 72 435 143T686 338T850 629Q674 498 467 498Q323 498 228 600T133 858Q133 1086 302 1261T706 1436Q896 1436 1008 1316T1120 996Q1120 607 848 311T141 -41ZM870 727Q913 852 913 1035Q913 1185 852 1273T690 1362Q536 1362 441 1207T346 875Q346 755 408 682T573 609Q743 609 870 727Z"  />
<glyph unicode=":" horiz-adv-x="786" d="M475 717Q419 717 379 756T338 854Q338 910 378 949T475 989Q531 989 571 950T612 854Q612 795 572 756T475 717ZM309 -20Q254 -20 213 18T172 115Q172 172 213 212T309 252Q363 252 404 213T446 115Q446 56 405 18T309 -20Z"  />
<glyph unicode=";" horiz-adv-x="786" d="M475 717Q419 717 379 756T338 854Q338 910 378 949T475 989Q531 989 571 950T612 854Q612 795 572 756T475 717ZM92 -354L61 -287Q293 -163 344 2H297Q174 2 174 113Q174 169 216 210T324 252Q463 252 463 98Q463 -164 92 -354Z"  />
<glyph unicode="&lt;" horiz-adv-x="1317" d="M217 504V616L1143 1098V961L375 559L1143 160V23L217 504Z"  />
<glyph unicode="=" horiz-adv-x="1317" d="M178 682V809H1188V682H178ZM178 311V436H1188V311H178Z"  />
<glyph unicode="&gt;" horiz-adv-x="1317" d="M223 23V160L993 559L223 961V1098L1149 616V504L223 23Z"  />
<glyph unicode="?" horiz-adv-x="981" d="M461 590L410 377H317L397 756Q821 797 821 1153Q821 1261 765 1319T610 1378Q537 1378 473 1337V1267Q473 1182 438 1140T322 1098Q240 1098 240 1186Q240 1284 352 1368T633 1452Q809 1452 907 1359T1006 1118Q1006 904 860 764T461 590ZM326 -20Q269 -20 229 19T188 115Q188 170 228 211T326 252Q382 252 422 212T463 115Q463 59 423 20T326 -20Z"  />
<glyph unicode="@" horiz-adv-x="1903" d="M1083 299H1075Q971 139 842 139Q734 139 672 210T610 416Q610 585 748 770T1077 956Q1209 956 1231 831H1237L1280 944H1430L1239 406Q1221 355 1221 297Q1221 199 1313 199Q1469 199 1572 346T1675 727Q1675 977 1517 1132T1087 1288Q793 1288 575 1066T356 494Q356 149 536 -43T1020 -236Q1322 -236 1526 -68L1556 -119Q1331 -313 1014 -313Q671 -313 433 -98T195 477Q195 840 451 1105T1096 1370Q1409 1370 1587 1186T1765 717Q1765 470 1631 303T1292 135Q1208 135 1149 179T1083 299ZM1208 741Q1185 897 1073 897Q958 897 870 733T782 399Q782 223 870 223Q935 223 983 262T1094 403L1208 741Z"  />
<glyph unicode="A" horiz-adv-x="1374" d="M1303 0H723L737 66Q936 85 936 141L891 494H391Q213 200 213 143Q213 79 399 66L385 0H-160L-145 66Q-66 72 -8 101T92 188T402 678L872 1440H952L1141 211Q1162 78 1317 66L1303 0ZM786 1130L446 575H874L786 1130Z"  />
<glyph unicode="B" horiz-adv-x="1339" d="M885 766V758Q1053 733 1145 654T1237 453Q1237 250 1067 125T664 0H-29L-12 66Q112 76 152 102T209 188L444 1219Q451 1250 451 1257Q451 1335 291 1354L305 1419H932Q1096 1419 1197 1353T1298 1167Q1298 859 885 766ZM686 1341L559 788H684Q860 788 958 891T1057 1157Q1057 1346 829 1346Q781 1346 686 1341ZM541 709L428 219Q422 193 422 170Q422 72 610 72Q787 72 889 197T991 483Q991 589 919 651T717 713Q606 713 541 709Z"  />
<glyph unicode="C" horiz-adv-x="1315" d="M1319 913H1237V952Q1237 1370 915 1370Q676 1370 507 1131T338 555Q338 336 444 206T723 76Q1014 76 1194 395L1266 358Q1042 -33 631 -33Q401 -33 251 123T100 532Q100 903 341 1177T915 1452Q1145 1452 1290 1352L1348 1419H1427L1319 913Z"  />
<glyph unicode="D" horiz-adv-x="1534" d="M-29 0L-14 66Q73 66 131 86T207 184L442 1204Q451 1243 451 1255Q451 1303 409 1324T291 1354L305 1419H907Q1161 1419 1338 1278T1516 872Q1516 488 1246 244T590 0H-29ZM686 1339L432 238Q426 212 426 186Q426 124 479 101T641 78Q924 78 1102 310T1280 870Q1280 1088 1163 1215T842 1343Q755 1343 686 1339Z"  />
<glyph unicode="E" horiz-adv-x="1337" d="M1309 1077H1235Q1228 1182 1195 1246T1119 1328T915 1346H688L557 774H717Q830 774 889 822T1004 1008H1077L950 453H877Q877 561 872 602T831 670T698 696H539L438 264Q426 213 426 168Q426 114 464 96T639 78Q792 78 854 88T955 124T1071 247T1192 418H1264L1141 0H-37L-23 66Q112 76 152 98T209 188L446 1219Q451 1241 451 1255Q451 1339 274 1354L291 1419H1389L1309 1077Z"  />
<glyph unicode="F" horiz-adv-x="1227" d="M1323 1065H1247Q1242 1169 1204 1245T1117 1333T932 1346H688L555 768H719Q853 768 916 831T1016 1001H1092L963 444H887Q891 476 891 508Q891 613 850 652T700 692H537L424 195Q420 177 420 162Q420 102 480 88T598 66L584 0H-35L-18 66Q131 73 163 103T207 184L446 1219Q451 1241 451 1257Q451 1300 410 1320T274 1354L291 1419H1405L1323 1065Z"  />
<glyph unicode="G" horiz-adv-x="1485" d="M1481 571Q1468 569 1450 567Q1358 557 1320 531T1264 436L1237 322Q1196 147 1190 90Q899 -33 668 -33Q418 -33 259 123T100 541Q100 920 351 1186T954 1452Q1193 1452 1346 1352L1403 1419H1483L1376 924H1294Q1293 1160 1207 1265T934 1370Q685 1370 511 1129T336 528Q336 306 440 178T729 49Q872 49 985 133Q1008 196 1040 332L1059 418Q1067 454 1067 471Q1067 524 1023 543T858 571L872 641H1495L1481 571Z"  />
<glyph unicode="H" horiz-adv-x="1669" d="M1755 1354Q1692 1349 1627 1331T1540 1229L1303 195Q1298 173 1298 160Q1298 79 1458 66L1444 0H854L870 66Q1009 73 1042 105T1087 184L1204 696H539L424 195Q420 178 420 162Q420 112 458 93T580 66L563 0H-25L-10 66Q129 72 162 103T207 184L446 1219Q451 1241 451 1251Q451 1331 287 1354L301 1419H891L877 1354Q758 1344 718 1319T662 1229L559 780H1227L1325 1219Q1329 1237 1329 1251Q1329 1300 1279 1324T1167 1354L1182 1419H1772L1755 1354Z"  />
<glyph unicode="I" horiz-adv-x="799" d="M907 1354Q770 1344 726 1319T666 1231L426 193Q422 176 422 162Q422 79 610 66L596 0H-43L-29 66Q127 72 163 103T211 182L451 1221Q455 1238 455 1255Q455 1302 404 1321T268 1354L283 1419H922L907 1354Z"  />
<glyph unicode="J" horiz-adv-x="1061" d="M1194 1354Q1068 1344 1026 1320T967 1229L776 383Q738 215 595 90T258 -35Q118 -35 35 37T-49 229Q-49 329 0 403T129 477Q240 477 240 381Q240 299 126 173Q98 142 80 115Q121 37 258 37Q374 37 449 126T580 463L750 1219Q754 1237 754 1251Q754 1300 711 1321T563 1354L580 1419H1208L1194 1354Z"  />
<glyph unicode="K" horiz-adv-x="1421" d="M1581 1354L1545 1350Q1406 1335 1331 1270Q956 929 766 776Q903 565 1098 233Q1158 133 1211 104T1354 66L1335 0H975Q813 345 590 674H535L424 195Q420 178 420 162Q420 101 472 87T584 66L567 0H-20L-6 66Q128 72 162 105T207 184L446 1219Q451 1241 451 1253Q451 1298 411 1320T291 1354L305 1419H895L881 1354Q757 1344 717 1319T662 1229L545 723H565Q766 863 976 1058T1186 1309Q1186 1344 1051 1354L1065 1419H1597L1581 1354Z"  />
<glyph unicode="L" horiz-adv-x="1237" d="M1083 0H-25L-10 66Q128 74 162 104T209 188L444 1214Q451 1245 451 1251Q451 1329 287 1354L301 1419H901L887 1354Q782 1346 732 1323T659 1225L438 260Q422 190 422 156Q422 106 458 90T629 74Q736 74 801 88T896 124T1008 246T1141 422H1210L1083 0Z"  />
<glyph unicode="M" horiz-adv-x="1898" d="M1993 1354Q1866 1343 1827 1318T1772 1229L1532 195Q1528 178 1528 162Q1528 118 1561 97T1698 66L1681 0H1057L1073 66Q1230 72 1273 112T1323 195L1569 1251H1559L782 23H735L557 1278H549L346 406Q319 290 319 221Q319 144 358 116T512 66L498 0H-76L-59 66Q110 82 158 148T246 393L416 1130Q426 1173 426 1208Q426 1344 246 1354L260 1419H737L893 352L1446 1245Q1510 1348 1532 1419H2007L1993 1354Z"  />
<glyph unicode="N" horiz-adv-x="1571" d="M1743 1354Q1593 1333 1541 1290T1440 1030L1198 -14H1110L526 1184L348 410Q322 297 322 219Q322 170 336 140T425 89T522 66L508 0H-76L-59 66Q67 86 129 122T248 399L408 1087Q420 1139 420 1188Q420 1327 213 1354L229 1419H637L1176 309L1339 1018Q1366 1135 1366 1206Q1366 1258 1352 1283T1275 1328T1165 1354L1182 1419H1759L1743 1354Z"  />
<glyph unicode="O" horiz-adv-x="1495" d="M651 -35Q403 -35 252 124T100 541Q100 913 349 1182T926 1452Q1172 1452 1324 1294T1477 872Q1477 500 1226 233T651 -35ZM907 1368Q653 1368 495 1098T336 494Q336 281 422 165T670 49Q919 49 1080 315T1241 932Q1241 1139 1154 1253T907 1368Z"  />
<glyph unicode="P" horiz-adv-x="1249" d="M522 627L422 188Q418 170 418 152Q418 106 449 90T598 66L584 0H-25L-10 66Q128 74 162 104T209 188L446 1223Q453 1254 453 1264Q453 1309 412 1328T281 1354L295 1419H926Q1102 1419 1207 1341T1313 1133Q1313 909 1131 768T696 627H522ZM686 1341L543 709H655Q856 709 961 824T1067 1112Q1067 1341 817 1341H686Z"  />
<glyph unicode="Q" horiz-adv-x="1495" d="M860 0Q854 -45 854 -72Q854 -169 907 -227T1047 -285Q1161 -285 1249 -262L1233 -338Q1063 -385 922 -385Q627 -385 627 -90Q627 -57 631 -33Q388 -23 244 135T100 541Q100 913 349 1182T926 1452Q1172 1452 1324 1294T1477 872Q1477 578 1306 335T860 0ZM907 1368Q653 1368 495 1098T336 494Q336 281 422 165T670 49Q922 49 1081 314T1241 932Q1241 1139 1154 1253T907 1368Z"  />
<glyph unicode="R" horiz-adv-x="1438" d="M1354 0H995Q918 197 676 645H526L422 188Q416 162 416 154Q416 115 439 95T590 66L573 0H-27L-10 66Q127 74 162 105T209 188L446 1225Q453 1256 453 1266Q453 1310 411 1328T287 1354L301 1419H940Q1121 1419 1225 1349T1329 1149Q1329 798 881 690Q953 549 1039 391Q1076 323 1122 233Q1160 162 1207 118T1370 66L1354 0ZM686 1343L547 727H688Q851 727 967 841T1083 1126Q1083 1231 1019 1287T846 1343H686Z"  />
<glyph unicode="S" horiz-adv-x="1149" d="M1098 948H1018Q1009 1190 935 1279T711 1368Q593 1368 513 1288T432 1094Q432 987 484 936T689 828Q932 737 998 648T1065 459Q1065 250 900 111T494 -29Q280 -29 129 72L72 0H-8L88 485H170Q194 53 528 53Q679 53 768 136T858 360Q858 460 807 518T632 622Q472 679 397 719T274 835T225 1010Q225 1193 377 1321T735 1450Q926 1450 1065 1352L1118 1419H1198L1098 948Z"  />
<glyph unicode="T" horiz-adv-x="1268" d="M1366 1034H1296Q1290 1155 1256 1235T1175 1331T989 1346H928L664 201Q659 179 659 166Q659 116 704 98T860 66L844 0H174L190 66Q340 77 384 99T449 193L715 1346H662Q519 1346 471 1330T338 1224T201 1034H129L219 1419H1454L1366 1034Z"  />
<glyph unicode="U" horiz-adv-x="1548" d="M1720 1354Q1605 1344 1538 1305T1417 1032L1320 602Q1269 375 1232 292T1115 132T917 11T659 -35Q450 -35 332 54T213 293Q213 340 221 375L418 1219Q422 1236 422 1251Q422 1329 289 1350Q273 1352 262 1354L279 1419H868L852 1354Q742 1345 696 1322T633 1229L451 438Q436 373 436 319Q436 74 721 74Q824 74 908 107T1055 202T1144 327T1215 574T1301 953T1343 1221Q1343 1280 1301 1309T1141 1354L1157 1419H1737L1720 1354Z"  />
<glyph unicode="V" horiz-adv-x="1366" d="M1599 1354Q1539 1349 1482 1325T1378 1238T1017 676L584 -18H502L327 1211Q320 1269 280 1307T152 1354L166 1419H741L725 1354Q532 1343 532 1286Q532 1239 672 291Q1115 989 1182 1113T1249 1274Q1249 1338 1059 1354L1073 1419H1614L1599 1354Z"  />
<glyph unicode="W" horiz-adv-x="1999" d="M2218 1354Q2143 1349 2084 1313T1997 1232T1737 757L1323 -18H1233L1116 1075L496 -18H408L343 1225Q335 1338 182 1354L197 1419H768L754 1354Q553 1342 553 1282Q553 1247 600 338L1196 1399H1288L1407 315Q1870 1202 1870 1278Q1870 1342 1694 1354L1708 1419H2232L2218 1354Z"  />
<glyph unicode="X" horiz-adv-x="1454" d="M1599 1354Q1448 1343 1372 1273T868 762L1047 364Q1129 182 1162 136T1216 82T1335 66L1321 0H682L696 66Q897 73 897 129Q897 202 715 618Q283 176 283 123Q283 71 438 66L424 0H-111L-94 66Q63 74 158 169T676 702L512 1070Q428 1258 410 1283T354 1328T227 1354L244 1419H874L860 1354Q662 1343 662 1292Q662 1215 834 840Q1223 1243 1223 1296Q1223 1345 1069 1354L1085 1419H1614L1599 1354Z"  />
<glyph unicode="Y" horiz-adv-x="1260" d="M1501 1354Q1452 1348 1396 1322T1273 1232T1008 923T774 623T717 479L653 203Q649 186 649 168Q649 103 723 87T848 66L834 0H170L184 66Q329 76 374 98T438 193L510 504Q518 539 518 553Q518 600 469 761L365 1105Q310 1287 256 1318T143 1354L160 1419H741L725 1354Q596 1349 562 1336T528 1298Q528 1256 711 688Q1169 1242 1169 1288Q1169 1342 997 1354L1014 1419H1518L1501 1354Z"  />
<glyph unicode="Z" horiz-adv-x="1233" d="M1378 1384L207 76H528Q617 76 695 85T817 113T955 229T1128 442H1198L1049 0H-90L-82 35L1092 1343H778Q619 1343 556 1310T408 1194T260 1018H190L326 1419H1386L1378 1384Z"  />
<glyph unicode="[" horiz-adv-x="768" d="M907 1434H553L170 -223H526L506 -309H-27L395 1520H928L907 1434Z"  />
<glyph unicode="\" horiz-adv-x="961" d="M569 -424L330 1524H461L700 -424H569Z"  />
<glyph unicode="]" horiz-adv-x="768" d="M406 -309H-129L-109 -223H248L629 1434H274L295 1520H827L406 -309Z"  />
<glyph unicode="^" horiz-adv-x="1317" d="M1030 797L709 1321L385 797H240L651 1456H766L1176 797H1030Z"  />
<glyph unicode="_" horiz-adv-x="1317" d="M1145 -279H-182L-160 -182H1167L1145 -279Z"  />
<glyph unicode="`" horiz-adv-x="1024" d="M881 1110L700 1259Q589 1347 561 1379T532 1450Q532 1484 556 1511T621 1538Q680 1538 715 1479L920 1143L881 1110Z"  />
<glyph unicode="a" horiz-adv-x="1174" d="M1098 51Q939 -16 856 -16Q785 -16 742 26T696 131H688Q511 -29 381 -29Q236 -29 153 74T70 360Q70 612 243 811T643 1010Q780 1010 881 946L1065 993L1075 979L924 334Q899 227 899 193Q899 136 923 116T1004 96Q1058 96 1112 115L1098 51ZM840 764Q849 804 812 871T659 938Q513 938 395 761T276 358Q276 210 320 147T457 84Q570 84 713 225L840 764Z"  />
<glyph unicode="b" horiz-adv-x="1135" d="M92 156L350 1286Q362 1339 362 1360Q362 1406 339 1430T199 1464L213 1526L584 1548L594 1534L442 868H446Q604 1010 737 1010Q890 1010 977 906T1065 627Q1065 362 891 166T489 -31Q204 -31 92 156ZM418 768L285 174Q298 117 352 79T481 41Q636 41 747 211T858 623Q858 899 655 899Q558 899 418 768Z"  />
<glyph unicode="c" horiz-adv-x="930" d="M733 887Q713 938 604 938Q472 938 372 783T272 391Q272 249 335 167T508 84Q678 84 823 283L881 240Q801 116 682 44T444 -29Q266 -29 167 76T68 365Q68 627 223 818T623 1010Q759 1010 836 952T913 797Q913 722 879 673T784 623Q731 623 704 650T676 711Q676 744 733 887Z"  />
<glyph unicode="d" horiz-adv-x="1178" d="M930 334Q905 225 905 195Q905 138 929 117T1010 96Q1064 96 1118 115L1104 51Q963 -16 862 -16Q705 -16 705 137H698Q522 -29 381 -29Q236 -29 153 74T70 360Q70 617 238 813T637 1010Q777 1010 887 946L965 1286Q975 1330 975 1362Q975 1446 858 1456Q822 1459 778 1464L793 1526L1196 1548L1206 1534L930 334ZM846 774Q853 805 805 871T651 938Q501 938 389 765T276 358Q276 210 320 147T457 84Q574 84 721 231L846 774Z"  />
<glyph unicode="e" horiz-adv-x="967" d="M268 408Q268 84 498 84Q676 84 825 283L883 240Q801 115 680 43T432 -29Q257 -29 164 70T70 352Q70 616 234 813T643 1010Q778 1010 852 955T926 801Q926 629 756 538T268 408ZM274 477Q550 511 645 599T741 825Q741 938 625 938Q506 938 404 809T274 477Z"  />
<glyph unicode="f" horiz-adv-x="674" d="M754 1466Q616 1460 537 1083L514 977H766L743 887H496L319 59Q273 -156 124 -300T-190 -444Q-360 -444 -360 -326Q-360 -279 -333 -248T-260 -217Q-186 -217 -131 -312Q-117 -338 -102 -362Q45 -351 125 23L307 887H113L133 977H328L342 1044Q390 1272 534 1410T842 1548Q929 1548 970 1515T1012 1432Q1012 1385 985 1354T911 1323Q839 1323 784 1418Q769 1443 754 1466Z"  />
<glyph unicode="g" horiz-adv-x="1174" d="M909 190Q839 -140 692 -292T281 -444Q10 -444 10 -299Q10 -254 38 -224T113 -193Q201 -193 274 -377H303Q453 -377 558 -246T709 135L702 137Q518 -20 373 -20Q230 -20 150 81T70 365Q70 620 242 815T643 1010Q782 1010 883 946L1067 993L1077 979L909 190ZM844 774Q853 817 811 877T659 938Q509 938 393 765T276 362Q276 90 459 90Q582 90 729 233L844 774Z"  />
<glyph unicode="h" horiz-adv-x="1153" d="M1079 51Q913 -16 838 -16Q678 -16 678 127Q678 178 694 238L793 610Q817 700 817 745Q817 891 690 891Q555 891 410 733L242 0H55L352 1286Q365 1342 365 1360Q365 1407 342 1431T201 1464L213 1526L586 1548L596 1534L434 842H438Q571 946 647 978T807 1010Q903 1010 957 955T1012 809Q1012 737 987 653L903 332Q879 240 879 195Q879 138 903 117T985 96Q1033 96 1094 117L1079 51Z"  />
<glyph unicode="i" horiz-adv-x="608" d="M494 1245Q444 1245 407 1284T369 1378Q369 1433 406 1474T494 1516Q548 1516 585 1478T623 1386Q623 1330 586 1288T494 1245ZM537 45Q377 -20 295 -20Q219 -20 177 18T135 123Q135 165 152 233L258 659Q281 751 281 803Q281 862 261 878T186 895Q154 895 74 877L88 940Q243 1010 326 1010Q481 1010 481 864Q481 814 467 754L358 330Q334 237 334 190Q334 92 442 92Q499 92 551 109L537 45Z"  />
<glyph unicode="j" horiz-adv-x="596" d="M502 1245Q452 1245 415 1284T377 1378Q377 1433 414 1474T502 1516Q557 1516 594 1478T631 1386Q631 1330 594 1288T502 1245ZM-86 -362Q-20 -358 33 -275T118 -65T223 400T297 803Q297 855 280 875T203 895Q150 895 80 872L94 938Q267 1010 342 1010Q498 1010 498 864Q498 838 448 588T353 144T255 -147T126 -312T-25 -412T-174 -444Q-344 -444 -344 -326Q-344 -282 -317 -250T-244 -217Q-172 -217 -116 -312Q-101 -338 -86 -362Z"  />
<glyph unicode="k" horiz-adv-x="1081" d="M815 811Q699 744 575 625Q726 241 775 166T913 90Q968 90 1044 113L1030 47Q878 -16 776 -16Q690 -16 635 51T444 485L328 385L242 0H55L352 1286Q365 1342 365 1360Q365 1407 342 1431T201 1464L213 1526L586 1548L596 1534L350 492H354Q526 676 674 813T867 976T958 1001Q1071 1001 1071 895Q1071 848 1035 812T950 776Q895 776 815 811Z"  />
<glyph unicode="l" horiz-adv-x="584" d="M322 330Q297 222 297 190Q297 92 403 92Q470 92 522 109L508 45Q352 -20 260 -20Q182 -20 139 20T96 123Q96 157 115 233L356 1286Q369 1343 369 1360Q369 1407 346 1431T205 1464L219 1526L590 1548L600 1534L322 330Z"  />
<glyph unicode="m" horiz-adv-x="1800" d="M1729 49Q1569 -16 1487 -16Q1327 -16 1327 127Q1327 178 1343 238L1442 610Q1466 700 1466 745Q1466 891 1346 891Q1213 891 1067 741L895 0H709L864 668Q879 733 879 752Q879 891 752 891Q613 891 465 733L297 0H111L258 647Q283 757 283 791Q283 849 263 868T188 887Q149 887 80 864L94 930Q244 997 336 997Q478 997 483 836H489Q648 960 716 985T864 1010Q950 1010 1007 961T1071 827H1075Q1213 941 1290 975T1460 1010Q1554 1010 1607 955T1661 809Q1661 737 1636 653L1552 332Q1528 240 1528 195Q1528 138 1552 117T1632 96Q1695 96 1743 113L1729 49Z"  />
<glyph unicode="n" horiz-adv-x="1208" d="M1135 51Q964 -16 893 -16Q733 -16 733 127Q733 180 750 238L848 610Q872 701 872 745Q872 891 745 891Q606 891 465 733L297 0H111L258 647Q283 757 283 791Q283 847 263 866T188 885Q146 885 80 864L94 930Q244 997 336 997Q478 997 483 836H489Q634 950 706 980T862 1010Q958 1010 1012 955T1067 809Q1067 737 1042 653L958 332Q934 240 934 195Q934 138 958 117T1040 96Q1089 96 1149 117L1135 51Z"  />
<glyph unicode="o" horiz-adv-x="1100" d="M440 -31Q275 -31 172 76T68 365Q68 633 235 821T653 1010Q829 1010 930 903T1032 616Q1032 354 866 162T440 -31ZM633 938Q464 938 367 756T270 332Q270 41 469 41Q630 41 729 220T829 653Q829 938 633 938Z"  />
<glyph unicode="p" horiz-adv-x="1184" d="M305 47L248 -215Q236 -270 236 -297Q236 -369 412 -381L397 -444H-154L-139 -381Q-21 -376 9 -347T49 -272L258 647Q281 748 281 791Q281 853 259 869T186 885Q151 885 78 862L92 928Q250 997 334 997Q465 997 485 864H494Q653 1010 793 1010Q943 1010 1028 908T1114 627Q1114 360 943 167T545 -27Q406 -27 305 47ZM471 766L342 199Q353 137 407 90T537 43Q691 43 799 211T907 623Q907 899 709 899Q611 899 471 766Z"  />
<glyph unicode="q" horiz-adv-x="1137" d="M809 -213Q795 -275 795 -297Q795 -369 961 -381L946 -444H395L410 -381Q538 -377 568 -348T608 -272L705 139H696Q519 -29 381 -29Q236 -29 153 74T70 360Q70 613 245 811T647 1010Q783 1010 889 946L1067 993L1079 979L809 -213ZM846 764Q855 803 817 870T664 938Q518 938 397 761T276 358Q276 208 321 146T457 84Q573 84 725 236L846 764Z"  />
<glyph unicode="r" horiz-adv-x="944" d="M760 905Q626 905 461 717L299 0H113L258 647Q283 759 283 791Q283 847 263 866T188 885Q146 885 80 864L94 930Q244 997 336 997Q483 997 483 823H489L584 903Q707 1010 799 1010Q954 1010 954 846Q954 774 919 724T821 674Q715 674 715 760Q715 809 760 905Z"  />
<glyph unicode="s" horiz-adv-x="883" d="M592 924L574 931Q556 938 518 938Q426 938 373 889T319 762Q319 701 355 664T514 582Q667 525 720 462T774 313Q774 165 657 68T362 -29Q219 -29 118 23T16 162Q16 203 45 236T117 270Q208 270 245 150Q255 118 266 88Q312 43 385 43Q602 43 602 242Q602 303 558 345T395 426Q150 510 150 694Q150 823 263 916T545 1010Q677 1010 759 971T842 854Q842 813 813 779T741 745Q651 745 614 863Q604 895 592 924Z"  />
<glyph unicode="t" horiz-adv-x="711" d="M752 887H473L346 336Q326 249 326 201Q326 145 353 120T453 94Q526 94 598 119L582 45Q421 -20 303 -20Q121 -20 121 129Q121 171 131 217L287 887H109L129 977H311L381 1270H561L494 977H772L752 887Z"  />
<glyph unicode="u" horiz-adv-x="1178" d="M1108 51Q947 -16 866 -16Q793 -16 750 26T707 139H700Q512 -25 342 -25Q245 -25 192 30T139 176Q139 238 162 332L240 647Q262 736 262 791Q262 850 242 867T170 885Q132 885 59 862L76 928Q228 997 307 997Q463 997 463 854Q463 801 446 743L358 373Q336 281 336 240Q336 94 457 94Q591 94 723 229L897 981L1071 993L1083 979L936 336Q909 218 909 195Q909 138 934 117T1016 96Q1068 96 1122 115L1108 51Z"  />
<glyph unicode="v" horiz-adv-x="1102" d="M59 860L74 926Q231 997 309 997Q467 997 467 854Q467 803 451 743L354 371Q334 294 334 252Q334 86 504 86Q645 86 773 247T901 612Q901 702 848 763Q795 824 795 893Q795 944 829 977T913 1010Q1038 1010 1038 823Q1038 493 859 231T428 -31Q299 -31 220 41T141 238Q141 283 154 328L242 647Q266 734 266 791Q266 846 247 865T170 885Q134 885 59 860Z"  />
<glyph unicode="w" horiz-adv-x="1683" d="M737 166Q545 -29 397 -29Q274 -29 208 39T141 233Q141 283 156 332L240 647Q262 730 262 791Q262 850 242 867T170 885Q132 885 59 862L76 928Q228 997 307 997Q463 997 463 854Q463 801 446 743L354 375Q334 295 334 240Q334 88 465 88Q604 88 723 223L899 981L1073 993L1085 979L944 371Q922 276 922 242Q922 86 1092 86Q1234 86 1358 246T1483 612Q1483 700 1430 763Q1376 826 1376 893Q1376 944 1411 977T1495 1010Q1622 1010 1622 823Q1622 492 1445 231T1018 -31Q920 -31 842 22T737 166Z"  />
<glyph unicode="x" horiz-adv-x="1026" d="M807 813Q691 709 590 524Q671 188 719 140T840 92Q899 92 971 113L952 47Q801 -16 703 -16Q600 -16 558 47T457 369Q307 134 229 58T66 -18Q17 -18 -13 8T-43 80Q-43 133 -8 166T92 199Q123 199 156 187Q189 175 217 166Q340 281 434 451Q346 805 308 844T205 883Q157 883 82 858L100 926Q280 997 324 997Q417 997 464 938T556 656Q560 633 567 602Q589 634 609 666Q734 868 809 934T963 1001Q1008 1001 1037 974T1067 899Q1067 850 1030 818T934 786Q899 786 807 813Z"  />
<glyph unicode="y" horiz-adv-x="1147" d="M913 197Q841 -130 687 -287T281 -444Q18 -444 18 -303Q18 -258 45 -227T119 -195Q210 -195 281 -377H305Q446 -377 556 -245T717 145H711Q520 -20 346 -20Q252 -20 196 34T139 180Q139 242 162 336L240 647Q262 735 262 791Q262 850 242 867T170 885Q132 885 59 862L76 928Q228 997 307 997Q465 997 465 854Q465 803 449 743L358 379Q334 283 334 244Q334 98 463 98Q603 98 735 233L901 981L1073 993L1085 979L913 197Z"  />
<glyph unicode="z" horiz-adv-x="909" d="M922 920L207 80L297 78Q591 71 629 106T766 348H825L758 0H-27L-10 70L692 899H561Q359 899 310 865T197 676H135L195 979H934L922 920Z"  />
<glyph unicode="{" horiz-adv-x="881" d="M1026 1460Q867 1454 805 1399T719 1237L668 1014Q632 858 543 762T231 625L223 594Q375 564 435 504T496 336Q496 273 455 105Q414 -64 414 -111Q414 -180 459 -215T633 -258L612 -334Q417 -334 328 -276T238 -90Q238 -20 286 148Q334 316 334 371Q334 535 72 549L102 674Q287 686 376 756T493 1056Q515 1238 557 1326T712 1475T1044 1536L1026 1460Z"  />
<glyph unicode="|" horiz-adv-x="768" d="M348 -424V1524H475V-424H348Z"  />
<glyph unicode="}" horiz-adv-x="881" d="M809 530Q596 510 520 432T418 149Q396 -32 350 -124T192 -275T-135 -334L-117 -256Q41 -250 104 -195T193 -35L244 190Q283 360 375 451T680 580L686 610Q531 640 474 701T416 868Q416 936 456 1100Q496 1264 496 1315Q496 1385 450 1420T279 1462L297 1536Q497 1536 585 1478T674 1294Q674 1224 626 1056Q578 888 578 834Q578 670 838 655L809 530Z"  />
<glyph unicode="~" horiz-adv-x="1317" d="M1212 715Q1166 592 1071 506T870 420Q765 420 629 488Q492 555 428 555Q375 555 333 522T233 381L156 412Q205 538 298 621T496 705Q612 705 740 637Q868 569 938 569Q993 569 1036 603T1135 745L1212 715Z"  />
<glyph unicode="&#xA0;" horiz-adv-x="494" />
<glyph unicode="&#xA1;" horiz-adv-x="678" d="M510 1184Q452 1184 413 1223T373 1321Q373 1377 412 1415T510 1454Q568 1454 606 1415T645 1321Q645 1264 606 1224T510 1184ZM494 1004Q454 747 420 447Q398 261 386 175T351 54T294 0T215 -20Q115 -20 115 80Q115 131 177 306T416 1004H494Z"  />
<glyph unicode="&#xA2;" horiz-adv-x="1137" d="M877 877Q846 930 748 942L551 90Q644 90 688 97T793 143T936 287L997 246Q814 -20 526 -20L463 -299H371L438 -14Q283 6 197 107T111 369Q111 619 266 809T676 1014L735 1276H827L764 1014Q897 1002 969 943T1042 801Q1042 736 1010 689T924 641Q817 641 817 725Q817 765 877 877ZM659 944Q514 921 414 764T313 397Q313 170 467 106L659 944Z"  />
<glyph unicode="&#xA3;" horiz-adv-x="1274" d="M1085 1292Q1080 1329 1038 1354T938 1380Q845 1380 770 1321T667 1179T593 799Q585 751 578 715H975L954 623H563Q512 335 238 186L236 172H1102L1063 0H14L47 147Q295 222 365 623H193L213 715H381Q397 987 471 1138T674 1373T958 1456Q1096 1456 1181 1385T1266 1208Q1266 1132 1230 1083T1133 1034Q1024 1034 1024 1122Q1024 1172 1069 1257Q1079 1277 1085 1292Z"  />
<glyph unicode="&#xA4;" horiz-adv-x="1169" d="M944 141L756 326Q688 283 610 283Q535 283 467 326L276 139L193 229L377 416Q334 484 334 559Q334 636 377 702L193 893L281 979L467 793Q535 836 610 836Q683 836 756 795L940 979L1030 893L844 702Q887 636 887 559Q887 484 844 416L1030 227L944 141ZM610 725Q541 725 495 677T449 559Q449 491 496 442T610 393Q678 393 725 442T772 559Q772 628 724 676T610 725Z"  />
<glyph unicode="&#xA5;" horiz-adv-x="1260" d="M1464 1354Q1382 1339 1350 1315Q1329 1303 1315 1296Q1235 1252 745 645L725 557H1124L1104 467H705L643 203Q639 186 639 164Q639 106 694 90T815 66L801 0H195L211 66Q360 74 393 104T440 193L504 467H117L139 557H526L541 627Q390 1179 337 1262T176 1354L190 1419H752L735 1354Q713 1352 682 1351Q555 1344 555 1300Q555 1258 723 748Q1139 1255 1139 1290Q1139 1344 981 1354L997 1419H1481L1464 1354Z"  />
<glyph unicode="&#xA6;" horiz-adv-x="768" d="M348 723V1524H475V723H348ZM348 -424V385H475V-424H348Z"  />
<glyph unicode="&#xA7;" horiz-adv-x="1024" d="M767 1372Q725 1382 687 1382Q585 1382 510 1321T435 1178Q435 1125 480 1088T702 965Q929 850 929 682Q929 569 840 467T603 313Q769 226 769 86Q769 -57 634 -157T300 -258Q173 -258 104 -216T34 -105Q34 -60 66 -23T155 14Q237 14 269 -172Q306 -186 351 -186Q455 -186 532 -123T609 31Q609 83 571 124T374 242Q126 358 126 541Q126 782 439 905Q276 1003 276 1122Q276 1261 405 1357T738 1454Q869 1454 937 1413T1005 1303Q1005 1254 973 1218T888 1182Q803 1182 767 1372ZM513 864Q286 778 286 592Q286 520 337 469T542 344Q765 454 765 627Q765 691 715 743T513 864Z"  />
<glyph unicode="&#xA8;" horiz-adv-x="1024" d="M928 1241Q877 1241 843 1277T809 1364Q809 1414 842 1450T928 1487Q977 1487 1010 1451T1044 1364Q1044 1313 1011 1277T928 1241ZM498 1241Q447 1241 413 1277T379 1364Q379 1414 412 1450T498 1487Q547 1487 580 1451T614 1364Q614 1313 581 1277T498 1241Z"  />
<glyph unicode="&#xA9;" horiz-adv-x="1929" d="M993 -281Q628 -281 367 -19T106 604Q106 963 367 1224T993 1485Q1356 1485 1616 1224T1876 604Q1876 242 1616 -19T993 -281ZM993 1397Q667 1397 437 1165T207 604Q207 271 436 38T993 -195Q1320 -195 1549 37T1778 604Q1778 933 1549 1165T993 1397ZM1403 403Q1279 111 1010 111Q789 111 654 242T518 592Q518 805 666 948T1038 1092Q1161 1092 1257 1028L1303 1094H1362L1366 731H1313Q1259 897 1186 958T999 1020Q880 1020 803 909T725 602Q725 423 815 315T1051 207Q1249 207 1343 428L1403 403Z"  />
<glyph unicode="&#xAA;" horiz-adv-x="1024" d="M1004 678Q872 623 803 623Q675 623 664 739H657Q523 612 406 612Q287 612 219 695T150 928Q150 1130 297 1291T635 1452Q743 1452 829 1403L977 1442L993 1430L860 911Q840 833 840 797Q840 749 860 734T928 719Q958 719 1018 737L1004 678ZM784 1253Q791 1281 767 1336T649 1391Q527 1391 430 1248T332 926Q332 795 368 753T471 711Q567 711 674 825L784 1253Z"  />
<glyph unicode="&#xAB;" horiz-adv-x="1190" d="M762 522L952 154L895 121L592 453Q565 483 565 510Q565 559 611 593L1083 938L1122 889L762 522ZM373 522L563 154L506 121L203 453Q176 483 176 510Q176 559 222 593L694 938L733 889L373 522Z"  />
<glyph unicode="&#xAC;" horiz-adv-x="1317" d="M1057 76V526H170V651H1188V76H1057Z"  />
<glyph unicode="&#xAD;" horiz-adv-x="766" d="M676 469H80L115 621H711L676 469Z"  />
<glyph unicode="&#xAE;" horiz-adv-x="1929" d="M993 -281Q628 -281 367 -19T106 604Q106 963 367 1224T993 1485Q1356 1485 1616 1224T1876 604Q1876 242 1616 -19T993 -281ZM993 1397Q667 1397 437 1165T207 604Q207 271 436 38T993 -195Q1320 -195 1549 37T1778 604Q1778 933 1549 1165T993 1397ZM1282 145Q1141 342 975 549H868V287Q868 243 893 228T1010 203V145H571V203Q661 213 684 229T707 287V930Q707 978 675 993T571 1018V1075H1063Q1195 1075 1281 1018T1368 854Q1368 656 1133 590L1316 365Q1390 269 1433 241T1569 203V145H1282ZM868 1004V625H956Q1060 625 1121 682T1182 834Q1182 1004 985 1004H868Z"  />
<glyph unicode="&#xAF;" horiz-adv-x="1221" d="M1538 1606H213L236 1702H1563L1538 1606Z"  />
<glyph unicode="&#xB0;" horiz-adv-x="858" d="M504 803Q361 803 270 896T178 1128Q178 1269 270 1360T504 1452Q648 1452 738 1359T829 1128Q829 989 738 896T504 803ZM504 1378Q421 1378 375 1311T328 1130Q328 879 508 879Q582 879 632 944T682 1120Q682 1247 633 1312T504 1378Z"  />
<glyph unicode="&#xB1;" horiz-adv-x="1317" d="M174 0V125H621V526H174V651H621V1104H748V651H1194V526H748V125H1194V0H174Z"  />
<glyph unicode="&#xB2;" horiz-adv-x="1024" d="M299 629H924L893 489H139L166 600Q245 702 432 807Q674 942 737 1037T801 1235Q801 1306 759 1344T649 1382Q547 1382 485 1317Q489 1291 489 1253Q489 1118 358 1118Q287 1118 287 1194Q287 1283 404 1367T682 1452Q820 1452 903 1391T987 1225Q987 973 645 823Q398 710 299 629Z"  />
<glyph unicode="&#xB3;" horiz-adv-x="1024" d="M713 995L711 987Q928 957 928 797Q928 650 790 553T446 455Q315 455 234 507T152 633Q152 680 182 718T258 756Q354 756 354 684Q354 647 311 582Q366 522 465 522Q576 522 656 601T737 807Q737 936 559 936H451L473 1024H549Q657 1024 718 1088T780 1264Q780 1384 645 1384Q561 1384 489 1323Q494 1300 494 1276Q494 1145 367 1145Q295 1145 295 1212Q295 1297 408 1374T690 1452Q829 1452 900 1397T971 1253Q971 1170 905 1100T713 995Z"  />
<glyph unicode="&#xB4;" horiz-adv-x="1024" d="M504 1110L469 1143Q599 1315 688 1450Q745 1538 825 1538Q860 1538 881 1516T903 1466Q903 1412 864 1378T619 1195Q569 1159 504 1110Z"  />
<glyph unicode="&#xB5;" horiz-adv-x="1161" d="M1092 51Q927 -16 850 -16Q777 -16 734 26T690 139H684Q653 115 620 87Q491 -20 338 -20Q218 -20 166 70H160L147 2L133 -108L134 -235Q134 -372 89 -408T0 -444Q-70 -444 -70 -371Q-70 -328 12 -125Q64 3 94 135L289 981L465 993L477 981L334 354Q315 271 315 231Q315 94 440 94Q570 94 707 229L881 981L1057 993L1067 981L918 336Q893 228 893 193Q893 137 917 117T997 96Q1051 96 1106 115L1092 51Z"  />
<glyph unicode="&#xB6;" horiz-adv-x="1024" d="M1135 1346H1024L664 -215H561L922 1346H762L401 -215H299L510 700Q370 700 283 780T195 995Q195 1173 325 1296T657 1419H1153L1135 1346Z"  />
<glyph unicode="&#xB7;" horiz-adv-x="571" d="M297 424Q240 424 200 462T160 559Q160 615 199 655T297 696Q355 696 393 655T432 559Q432 502 393 463T297 424Z"  />
<glyph unicode="&#xB8;" horiz-adv-x="1024" d="M233 -444L248 -373Q422 -373 470 -347T518 -274Q518 -207 365 -207L410 16H487L463 -98Q556 -98 613 -131T670 -225Q670 -444 233 -444Z"  />
<glyph unicode="&#xB9;" horiz-adv-x="1024" d="M823 1446Q773 1262 762 1208L631 643Q621 600 646 583T805 555L788 489H223L240 555Q396 562 424 583T461 637L606 1272H399L418 1346H479Q629 1346 750 1446H823Z"  />
<glyph unicode="&#xBA;" horiz-adv-x="1024" d="M504 606Q364 606 274 696T184 934Q184 1146 328 1299T678 1452Q824 1452 911 1366T999 1133Q999 922 857 764T504 606ZM662 1384Q525 1384 446 1234T367 899Q367 795 408 736T526 676Q650 676 733 826T817 1165Q817 1384 662 1384Z"  />
<glyph unicode="&#xBB;" horiz-adv-x="1190" d="M543 119L504 168L864 535L674 903L731 936L1034 604Q1061 574 1061 547Q1061 498 1016 465L543 119ZM154 119L115 168L475 535L285 903L342 936L645 604Q672 574 672 547Q672 498 627 465L154 119Z"  />
<glyph unicode="&#xBC;" horiz-adv-x="2150" d="M736 1446Q686 1262 675 1208L544 643Q534 600 559 583T718 555L701 489H136L153 555Q309 562 337 583T374 637L519 1272H312L331 1346H392Q542 1346 663 1446H736ZM1947 321L1923 217H1763L1710 -19H1544L1597 217H1102L1130 339L1818 962H1935L1788 321H1947ZM1724 769L1233 321H1622L1724 769ZM604 0H469L1513 1419H1650L604 0Z"  />
<glyph unicode="&#xBD;" horiz-adv-x="2150" d="M736 1446Q686 1262 675 1208L544 643Q534 600 559 583T718 555L701 489H136L153 555Q309 562 337 583T374 637L519 1272H312L331 1346H392Q542 1346 663 1446H736ZM1354 141H1979L1948 1H1194L1221 112Q1300 214 1487 319Q1729 454 1792 549T1856 747Q1856 818 1814 856T1704 894Q1602 894 1540 829Q1544 803 1544 765Q1544 630 1413 630Q1342 630 1342 706Q1342 795 1459 879T1737 964Q1875 964 1958 903T2042 737Q2042 485 1700 335Q1453 222 1354 141ZM594 0H459L1503 1419H1640L594 0Z"  />
<glyph unicode="&#xBE;" horiz-adv-x="2150" d="M713 995L711 987Q928 957 928 797Q928 650 790 553T446 455Q315 455 234 507T152 633Q152 680 182 718T258 756Q354 756 354 684Q354 647 311 582Q366 522 465 522Q576 522 656 601T737 807Q737 936 559 936H451L473 1024H549Q657 1024 718 1088T780 1264Q780 1384 645 1384Q561 1384 489 1323Q494 1300 494 1276Q494 1145 367 1145Q295 1145 295 1212Q295 1297 408 1374T690 1452Q829 1452 900 1397T971 1253Q971 1170 905 1100T713 995ZM2037 321L2013 217H1853L1800 -19H1634L1687 217H1192L1220 339L1908 962H2025L1878 321H2037ZM1814 769L1323 321H1712L1814 769ZM756 0H621L1665 1419H1802L756 0Z"  />
<glyph unicode="&#xBF;" horiz-adv-x="981" d="M737 1180Q680 1180 640 1221T600 1317Q600 1373 640 1412T737 1452Q792 1452 833 1414T874 1317Q874 1260 834 1220T737 1180ZM602 844L653 1055H745L666 676Q242 634 242 279Q242 170 299 112T453 53Q526 53 590 94V163Q590 334 741 334Q823 334 823 246Q823 148 711 64T430 -20Q255 -20 156 73T57 313Q57 526 203 668T602 844Z"  />
<glyph unicode="&#xC0;" horiz-adv-x="1374" d="M1303 0H723L737 66Q936 85 936 141L891 494H391Q213 200 213 143Q213 79 399 66L385 0H-160L-145 66Q-66 72 -8 101T92 188T402 678L872 1440H952L1141 211Q1162 78 1317 66L1303 0ZM786 1130L446 575H874L786 1130ZM1073 1546L1038 1507Q926 1567 839 1610Q738 1660 682 1691T625 1778Q625 1817 652 1842T721 1868Q749 1868 781 1844T1073 1546Z"  />
<glyph unicode="&#xC1;" horiz-adv-x="1374" d="M1303 0H723L737 66Q936 85 936 141L891 494H391Q213 200 213 143Q213 79 399 66L385 0H-160L-145 66Q-66 72 -8 101T92 188T402 678L872 1440H952L1141 211Q1162 78 1317 66L1303 0ZM786 1130L446 575H874L786 1130ZM774 1507L748 1546Q839 1623 1030 1808Q1087 1868 1153 1868Q1190 1868 1213 1848T1237 1796Q1237 1718 1137 1674T774 1507Z"  />
<glyph unicode="&#xC2;" horiz-adv-x="1374" d="M1303 0H723L737 66Q936 85 936 141L891 494H391Q213 200 213 143Q213 79 399 66L385 0H-160L-145 66Q-66 72 -8 101T92 188T402 678L872 1440H952L1141 211Q1162 78 1317 66L1303 0ZM786 1130L446 575H874L786 1130ZM1212 1538L1163 1507L927 1718L608 1507L561 1538L852 1823Q898 1868 952 1868Q1009 1868 1032 1827L1212 1538Z"  />
<glyph unicode="&#xC3;" horiz-adv-x="1374" d="M1303 0H723L737 66Q936 85 936 141L891 494H391Q213 200 213 143Q213 79 399 66L385 0H-160L-145 66Q-66 72 -8 101T92 188T402 678L872 1440H952L1141 211Q1162 78 1317 66L1303 0ZM786 1130L446 575H874L786 1130ZM1299 1842Q1271 1741 1201 1670T1045 1598Q963 1598 871 1649Q778 1700 733 1700Q692 1700 667 1679T592 1565L535 1590Q571 1695 638 1764T785 1833Q861 1833 955 1782Q1049 1731 1084 1731Q1134 1731 1166 1748T1237 1864L1299 1842Z"  />
<glyph unicode="&#xC4;" horiz-adv-x="1374" d="M1303 0H723L737 66Q936 85 936 141L891 494H391Q213 200 213 143Q213 79 399 66L385 0H-160L-145 66Q-66 72 -8 101T92 188T402 678L872 1440H952L1141 211Q1162 78 1317 66L1303 0ZM786 1130L446 575H874L786 1130ZM1136 1608Q1087 1608 1053 1643T1018 1731Q1018 1782 1052 1817T1136 1853Q1186 1853 1219 1818T1253 1731Q1253 1679 1220 1644T1136 1608ZM686 1608Q637 1608 602 1643T567 1731Q567 1782 602 1817T686 1853Q735 1853 770 1818T805 1731Q805 1679 770 1644T686 1608Z"  />
<glyph unicode="&#xC5;" horiz-adv-x="1374" d="M1303 0H723L737 66Q936 85 936 141L891 494H391Q213 200 213 143Q213 79 399 66L385 0H-160L-145 66Q-66 72 -8 101T92 188T402 678L872 1440H952L1141 211Q1162 78 1317 66L1303 0ZM786 1130L446 575H874L786 1130ZM882 1423Q777 1423 718 1472T659 1605Q659 1717 745 1792T958 1868Q1059 1868 1120 1816T1181 1681Q1181 1574 1097 1499T882 1423ZM947 1808Q876 1808 830 1749T783 1607Q783 1483 892 1483Q966 1483 1010 1541T1054 1681Q1054 1808 947 1808Z"  />
<glyph unicode="&#xC6;" horiz-adv-x="1989" d="M1960 1077H1884Q1877 1182 1844 1247T1768 1329T1567 1346H1348L1217 774H1366Q1484 774 1547 830T1653 1008H1729L1599 453H1526Q1530 481 1530 512Q1530 612 1498 654T1348 696H1198L1100 264Q1085 198 1085 168Q1085 111 1122 95T1288 78Q1439 78 1502 88T1602 122T1719 246T1841 418H1915L1792 0H623L639 66Q789 77 822 104T868 188L965 604H489Q178 220 178 150Q178 76 328 66L313 0H-223L-209 66Q-90 85 -32 128T194 378T948 1331Q919 1347 780 1354L797 1419H2038L1960 1077ZM1065 1335L555 688H983L1133 1335H1065Z"  />
<glyph unicode="&#xC7;" horiz-adv-x="1315" d="M1319 913H1237V952Q1237 1370 915 1370Q676 1370 507 1131T338 555Q338 336 444 206T723 76Q1014 76 1194 395L1266 358Q1042 -33 631 -33Q401 -33 251 123T100 532Q100 903 341 1177T915 1452Q1145 1452 1290 1352L1348 1419H1427L1319 913ZM413 -444L428 -373Q602 -373 650 -347T698 -274Q698 -207 545 -207L590 16H667L643 -98Q736 -98 793 -131T850 -225Q850 -444 413 -444Z"  />
<glyph unicode="&#xC8;" horiz-adv-x="1337" d="M1309 1077H1235Q1228 1182 1195 1246T1119 1328T915 1346H688L557 774H717Q830 774 889 822T1004 1008H1077L950 453H877Q877 561 872 602T831 670T698 696H539L438 264Q426 213 426 168Q426 114 464 96T639 78Q792 78 854 88T955 124T1071 247T1192 418H1264L1141 0H-37L-23 66Q112 76 152 98T209 188L446 1219Q451 1241 451 1255Q451 1339 274 1354L291 1419H1389L1309 1077ZM1032 1546L997 1507Q885 1567 798 1610Q697 1660 641 1691T584 1778Q584 1817 611 1842T680 1868Q708 1868 740 1844T1032 1546Z"  />
<glyph unicode="&#xC9;" horiz-adv-x="1337" d="M1309 1077H1235Q1228 1182 1195 1246T1119 1328T915 1346H688L557 774H717Q830 774 889 822T1004 1008H1077L950 453H877Q877 561 872 602T831 670T698 696H539L438 264Q426 213 426 168Q426 114 464 96T639 78Q792 78 854 88T955 124T1071 247T1192 418H1264L1141 0H-37L-23 66Q112 76 152 98T209 188L446 1219Q451 1241 451 1255Q451 1339 274 1354L291 1419H1389L1309 1077ZM713 1507L687 1546Q778 1623 969 1808Q1026 1868 1092 1868Q1129 1868 1152 1848T1176 1796Q1176 1718 1076 1674T713 1507Z"  />
<glyph unicode="&#xCA;" horiz-adv-x="1337" d="M1309 1077H1235Q1228 1182 1195 1246T1119 1328T915 1346H688L557 774H717Q830 774 889 822T1004 1008H1077L950 453H877Q877 561 872 602T831 670T698 696H539L438 264Q426 213 426 168Q426 114 464 96T639 78Q792 78 854 88T955 124T1071 247T1192 418H1264L1141 0H-37L-23 66Q112 76 152 98T209 188L446 1219Q451 1241 451 1255Q451 1339 274 1354L291 1419H1389L1309 1077ZM1210 1538L1161 1507L925 1718L606 1507L559 1538L850 1823Q896 1868 950 1868Q1007 1868 1030 1827L1210 1538Z"  />
<glyph unicode="&#xCB;" horiz-adv-x="1337" d="M1309 1077H1235Q1228 1182 1195 1246T1119 1328T915 1346H688L557 774H717Q830 774 889 822T1004 1008H1077L950 453H877Q877 561 872 602T831 670T698 696H539L438 264Q426 213 426 168Q426 114 464 96T639 78Q792 78 854 88T955 124T1071 247T1192 418H1264L1141 0H-37L-23 66Q112 76 152 98T209 188L446 1219Q451 1241 451 1255Q451 1339 274 1354L291 1419H1389L1309 1077ZM1108 1608Q1059 1608 1025 1643T990 1731Q990 1782 1024 1817T1108 1853Q1158 1853 1191 1818T1225 1731Q1225 1679 1192 1644T1108 1608ZM658 1608Q609 1608 574 1643T539 1731Q539 1782 574 1817T658 1853Q707 1853 742 1818T777 1731Q777 1679 742 1644T658 1608Z"  />
<glyph unicode="&#xCC;" horiz-adv-x="799" d="M907 1354Q770 1344 726 1319T666 1231L426 193Q422 176 422 162Q422 79 610 66L596 0H-43L-29 66Q127 72 163 103T211 182L451 1221Q455 1238 455 1255Q455 1302 404 1321T268 1354L283 1419H922L907 1354ZM843 1546L808 1507Q696 1567 609 1610Q508 1660 452 1691T395 1778Q395 1817 422 1842T491 1868Q519 1868 551 1844T843 1546Z"  />
<glyph unicode="&#xCD;" horiz-adv-x="799" d="M907 1354Q770 1344 726 1319T666 1231L426 193Q422 176 422 162Q422 79 610 66L596 0H-43L-29 66Q127 72 163 103T211 182L451 1221Q455 1238 455 1255Q455 1302 404 1321T268 1354L283 1419H922L907 1354ZM453 1507L427 1546Q518 1623 709 1808Q766 1868 832 1868Q869 1868 892 1848T916 1796Q916 1718 816 1674T453 1507Z"  />
<glyph unicode="&#xCE;" horiz-adv-x="799" d="M907 1354Q770 1344 726 1319T666 1231L426 193Q422 176 422 162Q422 79 610 66L596 0H-43L-29 66Q127 72 163 103T211 182L451 1221Q455 1238 455 1255Q455 1302 404 1321T268 1354L283 1419H922L907 1354ZM947 1538L898 1507L662 1718L343 1507L296 1538L587 1823Q633 1868 687 1868Q744 1868 767 1827L947 1538Z"  />
<glyph unicode="&#xCF;" horiz-adv-x="799" d="M907 1354Q770 1344 726 1319T666 1231L426 193Q422 176 422 162Q422 79 610 66L596 0H-43L-29 66Q127 72 163 103T211 182L451 1221Q455 1238 455 1255Q455 1302 404 1321T268 1354L283 1419H922L907 1354ZM881 1608Q832 1608 798 1643T763 1731Q763 1782 797 1817T881 1853Q931 1853 964 1818T998 1731Q998 1679 965 1644T881 1608ZM431 1608Q382 1608 347 1643T312 1731Q312 1782 347 1817T431 1853Q480 1853 515 1818T550 1731Q550 1679 515 1644T431 1608Z"  />
<glyph unicode="&#xD0;" horiz-adv-x="1534" d="M-29 0L-14 66Q73 66 131 86T207 184L328 702H141L164 797H348L442 1204Q451 1243 451 1255Q451 1303 409 1324T291 1354L305 1419H907Q1161 1419 1338 1278T1516 872Q1516 488 1246 244T590 0H-29ZM686 1339L561 797H864L844 702H541L432 238Q426 212 426 186Q426 124 479 101T641 78Q924 78 1102 310T1280 870Q1280 1088 1163 1215T842 1343Q755 1343 686 1339Z"  />
<glyph unicode="&#xD1;" horiz-adv-x="1571" d="M1743 1354Q1593 1333 1541 1290T1440 1030L1198 -14H1110L526 1184L348 410Q322 297 322 219Q322 170 336 140T425 89T522 66L508 0H-76L-59 66Q67 86 129 122T248 399L408 1087Q420 1139 420 1188Q420 1327 213 1354L229 1419H637L1176 309L1339 1018Q1366 1135 1366 1206Q1366 1258 1352 1283T1275 1328T1165 1354L1182 1419H1759L1743 1354ZM1403 1842Q1375 1741 1305 1670T1149 1598Q1067 1598 975 1649Q882 1700 837 1700Q796 1700 771 1679T696 1565L639 1590Q675 1695 742 1764T889 1833Q965 1833 1059 1782Q1153 1731 1188 1731Q1238 1731 1270 1748T1341 1864L1403 1842Z"  />
<glyph unicode="&#xD2;" horiz-adv-x="1495" d="M651 -35Q403 -35 252 124T100 541Q100 913 349 1182T926 1452Q1172 1452 1324 1294T1477 872Q1477 500 1226 233T651 -35ZM907 1368Q653 1368 495 1098T336 494Q336 281 422 165T670 49Q919 49 1080 315T1241 932Q1241 1139 1154 1253T907 1368ZM1143 1546L1108 1507Q996 1567 909 1610Q808 1660 752 1691T695 1778Q695 1817 722 1842T791 1868Q819 1868 851 1844T1143 1546Z"  />
<glyph unicode="&#xD3;" horiz-adv-x="1495" d="M651 -35Q403 -35 252 124T100 541Q100 913 349 1182T926 1452Q1172 1452 1324 1294T1477 872Q1477 500 1226 233T651 -35ZM907 1368Q653 1368 495 1098T336 494Q336 281 422 165T670 49Q919 49 1080 315T1241 932Q1241 1139 1154 1253T907 1368ZM733 1507L707 1546Q798 1623 989 1808Q1046 1868 1112 1868Q1149 1868 1172 1848T1196 1796Q1196 1718 1096 1674T733 1507Z"  />
<glyph unicode="&#xD4;" horiz-adv-x="1495" d="M651 -35Q403 -35 252 124T100 541Q100 913 349 1182T926 1452Q1172 1452 1324 1294T1477 872Q1477 500 1226 233T651 -35ZM907 1368Q653 1368 495 1098T336 494Q336 281 422 165T670 49Q919 49 1080 315T1241 932Q1241 1139 1154 1253T907 1368ZM1249 1538L1200 1507L964 1718L645 1507L598 1538L889 1823Q935 1868 989 1868Q1046 1868 1069 1827L1249 1538Z"  />
<glyph unicode="&#xD5;" horiz-adv-x="1495" d="M651 -35Q403 -35 252 124T100 541Q100 913 349 1182T926 1452Q1172 1452 1324 1294T1477 872Q1477 500 1226 233T651 -35ZM907 1368Q653 1368 495 1098T336 494Q336 281 422 165T670 49Q919 49 1080 315T1241 932Q1241 1139 1154 1253T907 1368ZM1344 1842Q1316 1741 1246 1670T1090 1598Q1008 1598 916 1649Q823 1700 778 1700Q737 1700 712 1679T637 1565L580 1590Q616 1695 683 1764T830 1833Q906 1833 1000 1782Q1094 1731 1129 1731Q1179 1731 1211 1748T1282 1864L1344 1842Z"  />
<glyph unicode="&#xD6;" horiz-adv-x="1495" d="M651 -35Q403 -35 252 124T100 541Q100 913 349 1182T926 1452Q1172 1452 1324 1294T1477 872Q1477 500 1226 233T651 -35ZM907 1368Q653 1368 495 1098T336 494Q336 281 422 165T670 49Q919 49 1080 315T1241 932Q1241 1139 1154 1253T907 1368ZM1181 1608Q1132 1608 1098 1643T1063 1731Q1063 1782 1097 1817T1181 1853Q1231 1853 1264 1818T1298 1731Q1298 1679 1265 1644T1181 1608ZM731 1608Q682 1608 647 1643T612 1731Q612 1782 647 1817T731 1853Q780 1853 815 1818T850 1731Q850 1679 815 1644T731 1608Z"  />
<glyph unicode="&#xD7;" horiz-adv-x="1317" d="M1044 111L682 473L322 109L233 199L598 559L233 922L322 1010L682 647L1044 1010L1133 922L768 559L1133 199L1044 111Z"  />
<glyph unicode="&#xD8;" horiz-adv-x="1524" d="M1370 1235Q1477 1082 1477 872Q1477 500 1226 233T651 -35Q404 -35 246 133L76 -33L27 18L203 190Q100 337 100 541Q100 913 349 1182T926 1452Q1174 1452 1323 1290L1462 1427L1518 1376L1370 1235ZM1202 1171Q1122 1370 907 1370Q655 1370 495 1101T334 494Q334 405 346 332L1202 1171ZM1229 1098L371 256Q452 49 670 49Q918 49 1080 313T1243 932Q1243 1035 1229 1098Z"  />
<glyph unicode="&#xD9;" horiz-adv-x="1548" d="M1720 1354Q1605 1344 1538 1305T1417 1032L1320 602Q1269 375 1232 292T1115 132T917 11T659 -35Q450 -35 332 54T213 293Q213 340 221 375L418 1219Q422 1236 422 1251Q422 1329 289 1350Q273 1352 262 1354L279 1419H868L852 1354Q742 1345 696 1322T633 1229L451 438Q436 373 436 319Q436 74 721 74Q824 74 908 107T1055 202T1144 327T1215 574T1301 953T1343 1221Q1343 1280 1301 1309T1141 1354L1157 1419H1737L1720 1354ZM1182 1546L1147 1507Q1035 1567 948 1610Q847 1660 791 1691T734 1778Q734 1817 761 1842T830 1868Q858 1868 890 1844T1182 1546Z"  />
<glyph unicode="&#xDA;" horiz-adv-x="1548" d="M1720 1354Q1605 1344 1538 1305T1417 1032L1320 602Q1269 375 1232 292T1115 132T917 11T659 -35Q450 -35 332 54T213 293Q213 340 221 375L418 1219Q422 1236 422 1251Q422 1329 289 1350Q273 1352 262 1354L279 1419H868L852 1354Q742 1345 696 1322T633 1229L451 438Q436 373 436 319Q436 74 721 74Q824 74 908 107T1055 202T1144 327T1215 574T1301 953T1343 1221Q1343 1280 1301 1309T1141 1354L1157 1419H1737L1720 1354ZM833 1507L807 1546Q898 1623 1089 1808Q1146 1868 1212 1868Q1249 1868 1272 1848T1296 1796Q1296 1718 1196 1674T833 1507Z"  />
<glyph unicode="&#xDB;" horiz-adv-x="1548" d="M1720 1354Q1605 1344 1538 1305T1417 1032L1320 602Q1269 375 1232 292T1115 132T917 11T659 -35Q450 -35 332 54T213 293Q213 340 221 375L418 1219Q422 1236 422 1251Q422 1329 289 1350Q273 1352 262 1354L279 1419H868L852 1354Q742 1345 696 1322T633 1229L451 438Q436 373 436 319Q436 74 721 74Q824 74 908 107T1055 202T1144 327T1215 574T1301 953T1343 1221Q1343 1280 1301 1309T1141 1354L1157 1419H1737L1720 1354ZM1339 1538L1290 1507L1054 1718L735 1507L688 1538L979 1823Q1025 1868 1079 1868Q1136 1868 1159 1827L1339 1538Z"  />
<glyph unicode="&#xDC;" horiz-adv-x="1548" d="M1720 1354Q1605 1344 1538 1305T1417 1032L1320 602Q1269 375 1232 292T1115 132T917 11T659 -35Q450 -35 332 54T213 293Q213 340 221 375L418 1219Q422 1236 422 1251Q422 1329 289 1350Q273 1352 262 1354L279 1419H868L852 1354Q742 1345 696 1322T633 1229L451 438Q436 373 436 319Q436 74 721 74Q824 74 908 107T1055 202T1144 327T1215 574T1301 953T1343 1221Q1343 1280 1301 1309T1141 1354L1157 1419H1737L1720 1354ZM1269 1608Q1220 1608 1186 1643T1151 1731Q1151 1782 1185 1817T1269 1853Q1319 1853 1352 1818T1386 1731Q1386 1679 1353 1644T1269 1608ZM819 1608Q770 1608 735 1643T700 1731Q700 1782 735 1817T819 1853Q868 1853 903 1818T938 1731Q938 1679 903 1644T819 1608Z"  />
<glyph unicode="&#xDD;" horiz-adv-x="1260" d="M1501 1354Q1452 1348 1396 1322T1273 1232T1008 923T774 623T717 479L653 203Q649 186 649 168Q649 103 723 87T848 66L834 0H170L184 66Q329 76 374 98T438 193L510 504Q518 539 518 553Q518 600 469 761L365 1105Q310 1287 256 1318T143 1354L160 1419H741L725 1354Q596 1349 562 1336T528 1298Q528 1256 711 688Q1169 1242 1169 1288Q1169 1342 997 1354L1014 1419H1518L1501 1354ZM729 1507L703 1546Q794 1623 985 1808Q1042 1868 1108 1868Q1145 1868 1168 1848T1192 1796Q1192 1718 1092 1674T729 1507Z"  />
<glyph unicode="&#xDE;" horiz-adv-x="1257" d="M451 324L420 188Q416 170 416 152Q416 110 443 92T596 66L580 0H-27L-10 66Q126 74 161 105T207 188L444 1221Q451 1252 451 1257Q451 1330 285 1354L299 1419H897L881 1354Q760 1345 719 1320T662 1231L639 1133H879Q1044 1133 1146 1052T1249 831Q1249 606 1069 465T637 324H451ZM621 1055L471 406H594Q787 406 895 524T1004 823Q1004 933 939 994T754 1055H621Z"  />
<glyph unicode="&#xDF;" horiz-adv-x="1110" d="M782 938L780 930Q902 899 972 811T1042 596Q1042 351 872 171T487 -10Q413 -10 365 0L383 82Q437 70 475 70Q630 70 734 241T838 637Q838 758 780 824T616 891H598L616 973H653Q768 973 862 1065T956 1317Q956 1475 815 1475Q577 1475 492 1061L279 59Q234 -151 86 -297T-229 -444Q-401 -444 -401 -326Q-401 -281 -374 -249T-299 -217Q-227 -217 -171 -312Q-156 -338 -141 -362Q6 -349 84 23L295 1006Q358 1300 516 1425T844 1550Q971 1550 1050 1489T1130 1317Q1130 1165 1026 1062T782 938Z"  />
<glyph unicode="&#xE0;" horiz-adv-x="1174" d="M1098 51Q939 -16 856 -16Q785 -16 742 26T696 131H688Q511 -29 381 -29Q236 -29 153 74T70 360Q70 612 243 811T643 1010Q780 1010 881 946L1065 993L1075 979L924 334Q899 227 899 193Q899 136 923 116T1004 96Q1058 96 1112 115L1098 51ZM840 764Q849 804 812 871T659 938Q513 938 395 761T276 358Q276 210 320 147T457 84Q570 84 713 225L840 764ZM855 1110L674 1259Q563 1347 535 1379T506 1450Q506 1484 530 1511T595 1538Q654 1538 689 1479L894 1143L855 1110Z"  />
<glyph unicode="&#xE1;" horiz-adv-x="1174" d="M1098 51Q939 -16 856 -16Q785 -16 742 26T696 131H688Q511 -29 381 -29Q236 -29 153 74T70 360Q70 612 243 811T643 1010Q780 1010 881 946L1065 993L1075 979L924 334Q899 227 899 193Q899 136 923 116T1004 96Q1058 96 1112 115L1098 51ZM840 764Q849 804 812 871T659 938Q513 938 395 761T276 358Q276 210 320 147T457 84Q570 84 713 225L840 764ZM524 1110L489 1143Q619 1315 708 1450Q765 1538 845 1538Q880 1538 901 1516T923 1466Q923 1412 884 1378T639 1195Q589 1159 524 1110Z"  />
<glyph unicode="&#xE2;" horiz-adv-x="1174" d="M1098 51Q939 -16 856 -16Q785 -16 742 26T696 131H688Q511 -29 381 -29Q236 -29 153 74T70 360Q70 612 243 811T643 1010Q780 1010 881 946L1065 993L1075 979L924 334Q899 227 899 193Q899 136 923 116T1004 96Q1058 96 1112 115L1098 51ZM840 764Q849 804 812 871T659 938Q513 938 395 761T276 358Q276 210 320 147T457 84Q570 84 713 225L840 764ZM952 1118L726 1391L397 1118L349 1151L653 1497Q678 1526 694 1534T751 1542Q804 1542 829 1501L1001 1151L952 1118Z"  />
<glyph unicode="&#xE3;" horiz-adv-x="1174" d="M1098 51Q939 -16 856 -16Q785 -16 742 26T696 131H688Q511 -29 381 -29Q236 -29 153 74T70 360Q70 612 243 811T643 1010Q780 1010 881 946L1065 993L1075 979L924 334Q899 227 899 193Q899 136 923 116T1004 96Q1058 96 1112 115L1098 51ZM840 764Q849 804 812 871T659 938Q513 938 395 761T276 358Q276 210 320 147T457 84Q570 84 713 225L840 764ZM1089 1473Q1061 1372 991 1301T835 1229Q753 1229 661 1280Q568 1331 523 1331Q482 1331 457 1310T382 1196L325 1221Q361 1326 428 1395T575 1464Q651 1464 745 1413Q839 1362 874 1362Q924 1362 956 1379T1027 1495L1089 1473Z"  />
<glyph unicode="&#xE4;" horiz-adv-x="1174" d="M1098 51Q939 -16 856 -16Q785 -16 742 26T696 131H688Q511 -29 381 -29Q236 -29 153 74T70 360Q70 612 243 811T643 1010Q780 1010 881 946L1065 993L1075 979L924 334Q899 227 899 193Q899 136 923 116T1004 96Q1058 96 1112 115L1098 51ZM840 764Q849 804 812 871T659 938Q513 938 395 761T276 358Q276 210 320 147T457 84Q570 84 713 225L840 764ZM927 1241Q876 1241 842 1277T808 1364Q808 1414 841 1450T927 1487Q976 1487 1009 1451T1043 1364Q1043 1313 1010 1277T927 1241ZM497 1241Q446 1241 412 1277T378 1364Q378 1414 411 1450T497 1487Q546 1487 579 1451T613 1364Q613 1313 580 1277T497 1241Z"  />
<glyph unicode="&#xE5;" horiz-adv-x="1174" d="M1098 51Q939 -16 856 -16Q785 -16 742 26T696 131H688Q511 -29 381 -29Q236 -29 153 74T70 360Q70 612 243 811T643 1010Q780 1010 881 946L1065 993L1075 979L924 334Q899 227 899 193Q899 136 923 116T1004 96Q1058 96 1112 115L1098 51ZM840 764Q849 804 812 871T659 938Q513 938 395 761T276 358Q276 210 320 147T457 84Q570 84 713 225L840 764ZM674 1114Q569 1114 510 1163T451 1296Q451 1408 537 1483T750 1559Q851 1559 912 1507T973 1372Q973 1265 889 1190T674 1114ZM739 1499Q668 1499 622 1440T575 1298Q575 1174 684 1174Q758 1174 802 1232T846 1372Q846 1499 739 1499Z"  />
<glyph unicode="&#xE6;" horiz-adv-x="1565" d="M866 428Q866 256 920 170T1098 84Q1277 84 1423 283L1481 240Q1400 117 1279 44T1032 -29Q788 -29 705 168H698Q520 -27 283 -27Q175 -27 110 28T45 176Q45 343 190 440T711 592Q748 740 748 778Q748 847 707 892T588 938Q501 938 414 887V857Q414 784 408 753T365 693T268 664Q190 664 190 748Q190 847 327 928T606 1010Q849 1010 907 885Q1064 1010 1241 1010Q1378 1010 1452 955T1526 801Q1526 481 866 428ZM872 500Q1341 520 1341 825Q1341 938 1223 938Q1108 938 1004 811T872 500ZM686 510Q479 490 365 412T250 209Q250 86 379 86Q558 86 682 244Q674 289 674 352Q674 426 686 510Z"  />
<glyph unicode="&#xE7;" horiz-adv-x="930" d="M733 887Q713 938 604 938Q472 938 372 783T272 391Q272 249 335 167T508 84Q678 84 823 283L881 240Q801 116 682 44T444 -29Q266 -29 167 76T68 365Q68 627 223 818T623 1010Q759 1010 836 952T913 797Q913 722 879 673T784 623Q731 623 704 650T676 711Q676 744 733 887ZM233 -444L248 -373Q422 -373 470 -347T518 -274Q518 -207 365 -207L410 16H487L463 -98Q556 -98 613 -131T670 -225Q670 -444 233 -444Z"  />
<glyph unicode="&#xE8;" horiz-adv-x="967" d="M268 408Q268 84 498 84Q676 84 825 283L883 240Q801 115 680 43T432 -29Q257 -29 164 70T70 352Q70 616 234 813T643 1010Q778 1010 852 955T926 801Q926 629 756 538T268 408ZM274 477Q550 511 645 599T741 825Q741 938 625 938Q506 938 404 809T274 477ZM782 1110L601 1259Q490 1347 462 1379T433 1450Q433 1484 457 1511T522 1538Q581 1538 616 1479L821 1143L782 1110Z"  />
<glyph unicode="&#xE9;" horiz-adv-x="967" d="M268 408Q268 84 498 84Q676 84 825 283L883 240Q801 115 680 43T432 -29Q257 -29 164 70T70 352Q70 616 234 813T643 1010Q778 1010 852 955T926 801Q926 629 756 538T268 408ZM274 477Q550 511 645 599T741 825Q741 938 625 938Q506 938 404 809T274 477ZM504 1110L469 1143Q599 1315 688 1450Q745 1538 825 1538Q860 1538 881 1516T903 1466Q903 1412 864 1378T619 1195Q569 1159 504 1110Z"  />
<glyph unicode="&#xEA;" horiz-adv-x="967" d="M268 408Q268 84 498 84Q676 84 825 283L883 240Q801 115 680 43T432 -29Q257 -29 164 70T70 352Q70 616 234 813T643 1010Q778 1010 852 955T926 801Q926 629 756 538T268 408ZM274 477Q550 511 645 599T741 825Q741 938 625 938Q506 938 404 809T274 477ZM915 1118L689 1391L360 1118L312 1151L616 1497Q641 1526 657 1534T714 1542Q767 1542 792 1501L964 1151L915 1118Z"  />
<glyph unicode="&#xEB;" horiz-adv-x="967" d="M268 408Q268 84 498 84Q676 84 825 283L883 240Q801 115 680 43T432 -29Q257 -29 164 70T70 352Q70 616 234 813T643 1010Q778 1010 852 955T926 801Q926 629 756 538T268 408ZM274 477Q550 511 645 599T741 825Q741 938 625 938Q506 938 404 809T274 477ZM880 1241Q829 1241 795 1277T761 1364Q761 1414 794 1450T880 1487Q929 1487 962 1451T996 1364Q996 1313 963 1277T880 1241ZM450 1241Q399 1241 365 1277T331 1364Q331 1414 364 1450T450 1487Q499 1487 532 1451T566 1364Q566 1313 533 1277T450 1241Z"  />
<glyph unicode="&#xEC;" horiz-adv-x="608" d="M537 45Q377 -20 295 -20Q219 -20 177 18T135 123Q135 165 152 233L258 659Q281 751 281 803Q281 862 261 878T186 895Q154 895 74 877L88 940Q243 1010 326 1010Q481 1010 481 864Q481 814 467 754L358 330Q334 237 334 190Q334 92 442 92Q499 92 551 109L537 45ZM552 1110L371 1259Q260 1347 232 1379T203 1450Q203 1484 227 1511T292 1538Q351 1538 386 1479L591 1143L552 1110Z"  />
<glyph unicode="&#xED;" horiz-adv-x="608" d="M537 45Q377 -20 295 -20Q219 -20 177 18T135 123Q135 165 152 233L258 659Q281 751 281 803Q281 862 261 878T186 895Q154 895 74 877L88 940Q243 1010 326 1010Q481 1010 481 864Q481 814 467 754L358 330Q334 237 334 190Q334 92 442 92Q499 92 551 109L537 45ZM265 1110L230 1143Q360 1315 449 1450Q506 1538 586 1538Q621 1538 642 1516T664 1466Q664 1412 625 1378T380 1195Q330 1159 265 1110Z"  />
<glyph unicode="&#xEE;" horiz-adv-x="608" d="M588 1120L395 1391L102 1120L57 1151L322 1493Q360 1542 420 1542Q477 1542 496 1497L639 1151L588 1120ZM537 45Q377 -20 295 -20Q219 -20 177 18T135 123Q135 165 152 233L258 659Q281 751 281 803Q281 862 261 878T186 895Q154 895 74 877L88 940Q243 1010 326 1010Q481 1010 481 864Q481 814 467 754L358 330Q334 237 334 190Q334 92 442 92Q499 92 551 109L537 45Z"  />
<glyph unicode="&#xEF;" horiz-adv-x="608" d="M590 1241Q541 1241 508 1276T475 1364Q475 1415 507 1451T590 1487Q639 1487 672 1451T705 1364Q705 1314 672 1278T590 1241ZM240 1241Q191 1241 158 1276T125 1364Q125 1415 157 1451T240 1487Q288 1487 321 1451T354 1364Q354 1312 321 1277T240 1241ZM537 45Q377 -20 295 -20Q219 -20 177 18T135 123Q135 165 152 233L258 659Q281 751 281 803Q281 862 261 878T186 895Q154 895 74 877L88 940Q243 1010 326 1010Q481 1010 481 864Q481 814 467 754L358 330Q334 237 334 190Q334 92 442 92Q499 92 551 109L537 45Z"  />
<glyph unicode="&#xF0;" horiz-adv-x="1118" d="M903 1343Q1073 1108 1073 831Q1073 472 902 221T453 -31Q288 -31 178 78T68 371Q68 628 231 804T627 981Q711 981 780 940T877 844L885 846L887 872Q901 1057 786 1282L524 1143L483 1217L745 1354Q697 1437 612 1499L672 1556Q770 1499 852 1409L1077 1528L1120 1452L903 1343ZM633 907Q460 907 366 729T272 317Q272 41 475 41Q629 41 735 231T842 647Q842 767 787 837T633 907Z"  />
<glyph unicode="&#xF1;" horiz-adv-x="1208" d="M1135 51Q964 -16 893 -16Q733 -16 733 127Q733 180 750 238L848 610Q872 701 872 745Q872 891 745 891Q606 891 465 733L297 0H111L258 647Q283 757 283 791Q283 847 263 866T188 885Q146 885 80 864L94 930Q244 997 336 997Q478 997 483 836H489Q634 950 706 980T862 1010Q958 1010 1012 955T1067 809Q1067 737 1042 653L958 332Q934 240 934 195Q934 138 958 117T1040 96Q1089 96 1149 117L1135 51ZM1098 1473Q1070 1372 1000 1301T844 1229Q762 1229 670 1280Q577 1331 532 1331Q491 1331 466 1310T391 1196L334 1221Q370 1326 437 1395T584 1464Q660 1464 754 1413Q848 1362 883 1362Q933 1362 965 1379T1036 1495L1098 1473Z"  />
<glyph unicode="&#xF2;" horiz-adv-x="1100" d="M440 -31Q275 -31 172 76T68 365Q68 633 235 821T653 1010Q829 1010 930 903T1032 616Q1032 354 866 162T440 -31ZM633 938Q464 938 367 756T270 332Q270 41 469 41Q630 41 729 220T829 653Q829 938 633 938ZM827 1110L646 1259Q535 1347 507 1379T478 1450Q478 1484 502 1511T567 1538Q626 1538 661 1479L866 1143L827 1110Z"  />
<glyph unicode="&#xF3;" horiz-adv-x="1100" d="M440 -31Q275 -31 172 76T68 365Q68 633 235 821T653 1010Q829 1010 930 903T1032 616Q1032 354 866 162T440 -31ZM633 938Q464 938 367 756T270 332Q270 41 469 41Q630 41 729 220T829 653Q829 938 633 938ZM506 1110L471 1143Q601 1315 690 1450Q747 1538 827 1538Q862 1538 883 1516T905 1466Q905 1412 866 1378T621 1195Q571 1159 506 1110Z"  />
<glyph unicode="&#xF4;" horiz-adv-x="1100" d="M440 -31Q275 -31 172 76T68 365Q68 633 235 821T653 1010Q829 1010 930 903T1032 616Q1032 354 866 162T440 -31ZM633 938Q464 938 367 756T270 332Q270 41 469 41Q630 41 729 220T829 653Q829 938 633 938ZM939 1118L713 1391L384 1118L336 1151L640 1497Q665 1526 681 1534T738 1542Q791 1542 816 1501L988 1151L939 1118Z"  />
<glyph unicode="&#xF5;" horiz-adv-x="1100" d="M440 -31Q275 -31 172 76T68 365Q68 633 235 821T653 1010Q829 1010 930 903T1032 616Q1032 354 866 162T440 -31ZM633 938Q464 938 367 756T270 332Q270 41 469 41Q630 41 729 220T829 653Q829 938 633 938ZM1066 1473Q1038 1372 968 1301T812 1229Q730 1229 638 1280Q545 1331 500 1331Q459 1331 434 1310T359 1196L302 1221Q338 1326 405 1395T552 1464Q628 1464 722 1413Q816 1362 851 1362Q901 1362 933 1379T1004 1495L1066 1473Z"  />
<glyph unicode="&#xF6;" horiz-adv-x="1100" d="M440 -31Q275 -31 172 76T68 365Q68 633 235 821T653 1010Q829 1010 930 903T1032 616Q1032 354 866 162T440 -31ZM633 938Q464 938 367 756T270 332Q270 41 469 41Q630 41 729 220T829 653Q829 938 633 938ZM917 1241Q866 1241 832 1277T798 1364Q798 1414 831 1450T917 1487Q966 1487 999 1451T1033 1364Q1033 1313 1000 1277T917 1241ZM487 1241Q436 1241 402 1277T368 1364Q368 1414 401 1450T487 1487Q536 1487 569 1451T603 1364Q603 1313 570 1277T487 1241Z"  />
<glyph unicode="&#xF7;" horiz-adv-x="1317" d="M684 838Q630 838 593 875T555 967Q555 1019 592 1056T684 1094Q738 1094 775 1057T813 967Q813 913 776 876T684 838ZM170 498V623H1198V498H170ZM684 27Q629 27 592 64T555 154Q555 207 593 245T684 283Q736 283 774 245T813 154Q813 102 776 65T684 27Z"  />
<glyph unicode="&#xF8;" horiz-adv-x="1100" d="M977 838Q1032 744 1032 616Q1032 354 866 162T440 -31Q268 -31 160 92L23 -35L-25 10L123 145Q68 233 68 365Q68 633 235 821T653 1010Q834 1010 938 891L1069 1010L1114 965L977 838ZM819 782Q778 938 633 938Q547 938 472 884T343 711T279 497T268 274L819 782ZM831 709L281 203Q317 41 469 41Q539 41 603 79T721 201T801 393T829 576T831 709Z"  />
<glyph unicode="&#xF9;" horiz-adv-x="1178" d="M1108 51Q947 -16 866 -16Q793 -16 750 26T707 139H700Q512 -25 342 -25Q245 -25 192 30T139 176Q139 238 162 332L240 647Q262 736 262 791Q262 850 242 867T170 885Q132 885 59 862L76 928Q228 997 307 997Q463 997 463 854Q463 801 446 743L358 373Q336 281 336 240Q336 94 457 94Q591 94 723 229L897 981L1071 993L1083 979L936 336Q909 218 909 195Q909 138 934 117T1016 96Q1068 96 1122 115L1108 51ZM812 1110L631 1259Q520 1347 492 1379T463 1450Q463 1484 487 1511T552 1538Q611 1538 646 1479L851 1143L812 1110Z"  />
<glyph unicode="&#xFA;" horiz-adv-x="1178" d="M1108 51Q947 -16 866 -16Q793 -16 750 26T707 139H700Q512 -25 342 -25Q245 -25 192 30T139 176Q139 238 162 332L240 647Q262 736 262 791Q262 850 242 867T170 885Q132 885 59 862L76 928Q228 997 307 997Q463 997 463 854Q463 801 446 743L358 373Q336 281 336 240Q336 94 457 94Q591 94 723 229L897 981L1071 993L1083 979L936 336Q909 218 909 195Q909 138 934 117T1016 96Q1068 96 1122 115L1108 51ZM563 1110L528 1143Q658 1315 747 1450Q804 1538 884 1538Q919 1538 940 1516T962 1466Q962 1412 923 1378T678 1195Q628 1159 563 1110Z"  />
<glyph unicode="&#xFB;" horiz-adv-x="1178" d="M1108 51Q947 -16 866 -16Q793 -16 750 26T707 139H700Q512 -25 342 -25Q245 -25 192 30T139 176Q139 238 162 332L240 647Q262 736 262 791Q262 850 242 867T170 885Q132 885 59 862L76 928Q228 997 307 997Q463 997 463 854Q463 801 446 743L358 373Q336 281 336 240Q336 94 457 94Q591 94 723 229L897 981L1071 993L1083 979L936 336Q909 218 909 195Q909 138 934 117T1016 96Q1068 96 1122 115L1108 51ZM948 1118L722 1391L393 1118L345 1151L649 1497Q674 1526 690 1534T747 1542Q800 1542 825 1501L997 1151L948 1118Z"  />
<glyph unicode="&#xFC;" horiz-adv-x="1178" d="M1108 51Q947 -16 866 -16Q793 -16 750 26T707 139H700Q512 -25 342 -25Q245 -25 192 30T139 176Q139 238 162 332L240 647Q262 736 262 791Q262 850 242 867T170 885Q132 885 59 862L76 928Q228 997 307 997Q463 997 463 854Q463 801 446 743L358 373Q336 281 336 240Q336 94 457 94Q591 94 723 229L897 981L1071 993L1083 979L936 336Q909 218 909 195Q909 138 934 117T1016 96Q1068 96 1122 115L1108 51ZM913 1241Q862 1241 828 1277T794 1364Q794 1414 827 1450T913 1487Q962 1487 995 1451T1029 1364Q1029 1313 996 1277T913 1241ZM483 1241Q432 1241 398 1277T364 1364Q364 1414 397 1450T483 1487Q532 1487 565 1451T599 1364Q599 1313 566 1277T483 1241Z"  />
<glyph unicode="&#xFD;" horiz-adv-x="1147" d="M913 197Q841 -130 687 -287T281 -444Q18 -444 18 -303Q18 -258 45 -227T119 -195Q210 -195 281 -377H305Q446 -377 556 -245T717 145H711Q520 -20 346 -20Q252 -20 196 34T139 180Q139 242 162 336L240 647Q262 735 262 791Q262 850 242 867T170 885Q132 885 59 862L76 928Q228 997 307 997Q465 997 465 854Q465 803 449 743L358 379Q334 283 334 244Q334 98 463 98Q603 98 735 233L901 981L1073 993L1085 979L913 197ZM547 1110L512 1143Q642 1315 731 1450Q788 1538 868 1538Q903 1538 924 1516T946 1466Q946 1412 907 1378T662 1195Q612 1159 547 1110Z"  />
<glyph unicode="&#xFE;" horiz-adv-x="1133" d="M254 47L197 -215Q182 -284 182 -297Q182 -369 358 -381L344 -444H-207L-193 -381Q-74 -376 -44 -348T-2 -272L350 1286Q362 1339 362 1360Q362 1406 339 1430T199 1464L213 1526L584 1548L594 1534L440 868H446Q595 1010 741 1010Q892 1010 977 906T1063 627Q1063 360 892 167T494 -27Q355 -27 254 47ZM420 768L291 199Q302 136 355 90T483 43Q639 43 747 212T856 623Q856 899 655 899Q557 899 420 768Z"  />
<glyph unicode="&#xFF;" horiz-adv-x="1147" d="M913 197Q841 -130 687 -287T281 -444Q18 -444 18 -303Q18 -258 45 -227T119 -195Q210 -195 281 -377H305Q446 -377 556 -245T717 145H711Q520 -20 346 -20Q252 -20 196 34T139 180Q139 242 162 336L240 647Q262 735 262 791Q262 850 242 867T170 885Q132 885 59 862L76 928Q228 997 307 997Q465 997 465 854Q465 803 449 743L358 379Q334 283 334 244Q334 98 463 98Q603 98 735 233L901 981L1073 993L1085 979L913 197ZM919 1241Q868 1241 834 1277T800 1364Q800 1414 833 1450T919 1487Q968 1487 1001 1451T1035 1364Q1035 1313 1002 1277T919 1241ZM489 1241Q438 1241 404 1277T370 1364Q370 1414 403 1450T489 1487Q538 1487 571 1451T605 1364Q605 1313 572 1277T489 1241Z"  />
<glyph unicode="&#x100;" horiz-adv-x="1374" d="M1303 0H723L737 66Q936 85 936 141L891 494H391Q213 200 213 143Q213 79 399 66L385 0H-160L-145 66Q-66 72 -8 101T92 188T402 678L872 1440H952L1141 211Q1162 78 1317 66L1303 0ZM786 1130L446 575H874L786 1130ZM1249 1661H563L592 1784H1278L1249 1661Z"  />
<glyph unicode="&#x101;" horiz-adv-x="1174" d="M1098 51Q939 -16 856 -16Q785 -16 742 26T696 131H688Q511 -29 381 -29Q236 -29 153 74T70 360Q70 612 243 811T643 1010Q780 1010 881 946L1065 993L1075 979L924 334Q899 227 899 193Q899 136 923 116T1004 96Q1058 96 1112 115L1098 51ZM840 764Q849 804 812 871T659 938Q513 938 395 761T276 358Q276 210 320 147T457 84Q570 84 713 225L840 764ZM1040 1296H354L383 1419H1069L1040 1296Z"  />
<glyph unicode="&#x102;" horiz-adv-x="1374" d="M1303 0H723L737 66Q936 85 936 141L891 494H391Q213 200 213 143Q213 79 399 66L385 0H-160L-145 66Q-66 72 -8 101T92 188T402 678L872 1440H952L1141 211Q1162 78 1317 66L1303 0ZM786 1130L446 575H874L786 1130ZM1290 1851Q1173 1530 911 1530Q653 1530 653 1827V1851L708 1868Q725 1765 776 1720T938 1675Q1059 1675 1123 1727T1235 1868L1290 1851Z"  />
<glyph unicode="&#x103;" horiz-adv-x="1174" d="M1098 51Q939 -16 856 -16Q785 -16 742 26T696 131H688Q511 -29 381 -29Q236 -29 153 74T70 360Q70 612 243 811T643 1010Q780 1010 881 946L1065 993L1075 979L924 334Q899 227 899 193Q899 136 923 116T1004 96Q1058 96 1112 115L1098 51ZM840 764Q849 804 812 871T659 938Q513 938 395 761T276 358Q276 210 320 147T457 84Q570 84 713 225L840 764ZM1024 1495Q904 1126 647 1126Q533 1126 466 1201T399 1495L451 1507Q466 1378 518 1328T670 1278Q766 1278 833 1325T967 1507L1024 1495Z"  />
<glyph unicode="&#x104;" horiz-adv-x="1374" d="M1303 0H723L737 66Q936 85 936 141L891 494H391Q213 200 213 143Q213 79 399 66L385 0H-160L-145 66Q-66 72 -8 101T92 188T402 678L872 1440H952L1141 211Q1162 78 1317 66L1303 0ZM786 1130L446 575H874L786 1130ZM1190 -444H1076Q838 -444 838 -287Q838 -110 1129 39H1190Q1000 -93 1000 -256Q1000 -373 1203 -373L1190 -444Z"  />
<glyph unicode="&#x105;" horiz-adv-x="1174" d="M1098 51Q939 -16 856 -16Q785 -16 742 26T696 131H688Q511 -29 381 -29Q236 -29 153 74T70 360Q70 612 243 811T643 1010Q780 1010 881 946L1065 993L1075 979L924 334Q899 227 899 193Q899 136 923 116T1004 96Q1058 96 1112 115L1098 51ZM840 764Q849 804 812 871T659 938Q513 938 395 761T276 358Q276 210 320 147T457 84Q570 84 713 225L840 764ZM915 -444H801Q563 -444 563 -287Q563 -110 854 39H915Q725 -93 725 -256Q725 -373 928 -373L915 -444Z"  />
<glyph unicode="&#x106;" horiz-adv-x="1315" d="M1319 913H1237V952Q1237 1370 915 1370Q676 1370 507 1131T338 555Q338 336 444 206T723 76Q1014 76 1194 395L1266 358Q1042 -33 631 -33Q401 -33 251 123T100 532Q100 903 341 1177T915 1452Q1145 1452 1290 1352L1348 1419H1427L1319 913ZM739 1507L713 1546Q804 1623 995 1808Q1052 1868 1118 1868Q1155 1868 1178 1848T1202 1796Q1202 1718 1102 1674T739 1507Z"  />
<glyph unicode="&#x107;" horiz-adv-x="930" d="M733 887Q713 938 604 938Q472 938 372 783T272 391Q272 249 335 167T508 84Q678 84 823 283L881 240Q801 116 682 44T444 -29Q266 -29 167 76T68 365Q68 627 223 818T623 1010Q759 1010 836 952T913 797Q913 722 879 673T784 623Q731 623 704 650T676 711Q676 744 733 887ZM478 1110L443 1143Q573 1315 662 1450Q719 1538 799 1538Q834 1538 855 1516T877 1466Q877 1412 838 1378T593 1195Q543 1159 478 1110Z"  />
<glyph unicode="&#x108;" horiz-adv-x="1315" d="M1319 913H1237V952Q1237 1370 915 1370Q676 1370 507 1131T338 555Q338 336 444 206T723 76Q1014 76 1194 395L1266 358Q1042 -33 631 -33Q401 -33 251 123T100 532Q100 903 341 1177T915 1452Q1145 1452 1290 1352L1348 1419H1427L1319 913ZM1235 1538L1186 1507L950 1718L631 1507L584 1538L875 1823Q921 1868 975 1868Q1032 1868 1055 1827L1235 1538Z"  />
<glyph unicode="&#x109;" horiz-adv-x="930" d="M733 887Q713 938 604 938Q472 938 372 783T272 391Q272 249 335 167T508 84Q678 84 823 283L881 240Q801 116 682 44T444 -29Q266 -29 167 76T68 365Q68 627 223 818T623 1010Q759 1010 836 952T913 797Q913 722 879 673T784 623Q731 623 704 650T676 711Q676 744 733 887ZM866 1118L640 1391L311 1118L263 1151L567 1497Q592 1526 608 1534T665 1542Q718 1542 743 1501L915 1151L866 1118Z"  />
<glyph unicode="&#x10A;" horiz-adv-x="1315" d="M1319 913H1237V952Q1237 1370 915 1370Q676 1370 507 1131T338 555Q338 336 444 206T723 76Q1014 76 1194 395L1266 358Q1042 -33 631 -33Q401 -33 251 123T100 532Q100 903 341 1177T915 1452Q1145 1452 1290 1352L1348 1419H1427L1319 913ZM918 1597Q866 1597 829 1636T791 1728Q791 1783 828 1823T918 1863Q972 1863 1009 1826T1047 1736Q1047 1680 1010 1639T918 1597Z"  />
<glyph unicode="&#x10B;" horiz-adv-x="930" d="M733 887Q713 938 604 938Q472 938 372 783T272 391Q272 249 335 167T508 84Q678 84 823 283L881 240Q801 116 682 44T444 -29Q266 -29 167 76T68 365Q68 627 223 818T623 1010Q759 1010 836 952T913 797Q913 722 879 673T784 623Q731 623 704 650T676 711Q676 744 733 887ZM653 1247Q601 1247 564 1286T526 1378Q526 1433 563 1473T653 1513Q707 1513 744 1476T782 1386Q782 1330 745 1289T653 1247Z"  />
<glyph unicode="&#x10C;" horiz-adv-x="1315" d="M1319 913H1237V952Q1237 1370 915 1370Q676 1370 507 1131T338 555Q338 336 444 206T723 76Q1014 76 1194 395L1266 358Q1042 -33 631 -33Q401 -33 251 123T100 532Q100 903 341 1177T915 1452Q1145 1452 1290 1352L1348 1419H1427L1319 913ZM1307 1837L1018 1552Q983 1517 967 1512T918 1507Q867 1507 838 1548L658 1837L707 1870L940 1657L1262 1870L1307 1837Z"  />
<glyph unicode="&#x10D;" horiz-adv-x="930" d="M733 887Q713 938 604 938Q472 938 372 783T272 391Q272 249 335 167T508 84Q678 84 823 283L881 240Q801 116 682 44T444 -29Q266 -29 167 76T68 365Q68 627 223 818T623 1010Q759 1010 836 952T913 797Q913 722 879 673T784 623Q731 623 704 650T676 711Q676 744 733 887ZM709 1163Q684 1135 669 1127T613 1118Q551 1118 535 1159L363 1509L412 1542L635 1270L965 1542L1012 1509L709 1163Z"  />
<glyph unicode="&#x10E;" horiz-adv-x="1534" d="M-29 0L-14 66Q73 66 131 86T207 184L442 1204Q451 1243 451 1255Q451 1303 409 1324T291 1354L305 1419H907Q1161 1419 1338 1278T1516 872Q1516 488 1246 244T590 0H-29ZM686 1339L432 238Q426 212 426 186Q426 124 479 101T641 78Q924 78 1102 310T1280 870Q1280 1088 1163 1215T842 1343Q755 1343 686 1339ZM1257 1837L968 1552Q933 1517 917 1512T868 1507Q817 1507 788 1548L608 1837L657 1870L890 1657L1212 1870L1257 1837Z"  />
<glyph unicode="&#x10F;" horiz-adv-x="1407" d="M930 334Q905 225 905 195Q905 138 929 117T1010 96Q1064 96 1118 115L1104 51Q963 -16 862 -16Q705 -16 705 137H698Q522 -29 381 -29Q236 -29 153 74T70 360Q70 617 238 813T637 1010Q777 1010 887 946L965 1286Q975 1330 975 1362Q975 1446 858 1456Q822 1459 778 1464L793 1526L1196 1548L1206 1534L930 334ZM846 774Q853 805 805 871T651 938Q501 938 389 765T276 358Q276 210 320 147T457 84Q574 84 721 231L846 774ZM1254 999L1223 1063Q1441 1170 1475 1306H1432Q1313 1306 1313 1407Q1313 1459 1351 1500T1450 1542Q1583 1542 1583 1403Q1583 1162 1254 999Z"  />
<glyph unicode="&#x110;" horiz-adv-x="1534" d="M-29 0L-14 66Q73 66 131 86T207 184L328 702H141L164 797H348L442 1204Q451 1243 451 1255Q451 1303 409 1324T291 1354L305 1419H907Q1161 1419 1338 1278T1516 872Q1516 488 1246 244T590 0H-29ZM686 1339L561 797H864L844 702H541L432 238Q426 212 426 186Q426 124 479 101T641 78Q924 78 1102 310T1280 870Q1280 1088 1163 1215T842 1343Q755 1343 686 1339Z"  />
<glyph unicode="&#x111;" horiz-adv-x="1178" d="M1366 1253L1346 1171H1122L930 334Q905 225 905 195Q905 138 929 117T1010 96Q1064 96 1118 115L1104 51Q963 -16 862 -16Q705 -16 705 137H698Q522 -29 381 -29Q236 -29 153 74T70 360Q70 617 238 813T637 1010Q777 1010 887 946L938 1171H582L600 1253H956Q975 1330 975 1362Q975 1446 858 1456Q822 1459 778 1464L793 1526L1196 1548L1206 1534L1143 1253H1366ZM846 774Q853 805 805 871T651 938Q501 938 389 765T276 358Q276 210 320 147T457 84Q574 84 721 231L846 774Z"  />
<glyph unicode="&#x112;" horiz-adv-x="1337" d="M1309 1077H1235Q1228 1182 1195 1246T1119 1328T915 1346H688L557 774H717Q830 774 889 822T1004 1008H1077L950 453H877Q877 561 872 602T831 670T698 696H539L438 264Q426 213 426 168Q426 114 464 96T639 78Q792 78 854 88T955 124T1071 247T1192 418H1264L1141 0H-37L-23 66Q112 76 152 98T209 188L446 1219Q451 1241 451 1255Q451 1339 274 1354L291 1419H1389L1309 1077ZM1228 1661H542L571 1784H1257L1228 1661Z"  />
<glyph unicode="&#x113;" horiz-adv-x="967" d="M268 408Q268 84 498 84Q676 84 825 283L883 240Q801 115 680 43T432 -29Q257 -29 164 70T70 352Q70 616 234 813T643 1010Q778 1010 852 955T926 801Q926 629 756 538T268 408ZM274 477Q550 511 645 599T741 825Q741 938 625 938Q506 938 404 809T274 477ZM1008 1296H322L351 1419H1037L1008 1296Z"  />
<glyph unicode="&#x114;" horiz-adv-x="1337" d="M1309 1077H1235Q1228 1182 1195 1246T1119 1328T915 1346H688L557 774H717Q830 774 889 822T1004 1008H1077L950 453H877Q877 561 872 602T831 670T698 696H539L438 264Q426 213 426 168Q426 114 464 96T639 78Q792 78 854 88T955 124T1071 247T1192 418H1264L1141 0H-37L-23 66Q112 76 152 98T209 188L446 1219Q451 1241 451 1255Q451 1339 274 1354L291 1419H1389L1309 1077ZM1247 1851Q1130 1530 868 1530Q610 1530 610 1827V1851L665 1868Q682 1765 733 1720T895 1675Q1016 1675 1080 1727T1192 1868L1247 1851Z"  />
<glyph unicode="&#x115;" horiz-adv-x="967" d="M268 408Q268 84 498 84Q676 84 825 283L883 240Q801 115 680 43T432 -29Q257 -29 164 70T70 352Q70 616 234 813T643 1010Q778 1010 852 955T926 801Q926 629 756 538T268 408ZM274 477Q550 511 645 599T741 825Q741 938 625 938Q506 938 404 809T274 477ZM1005 1495Q885 1126 628 1126Q514 1126 447 1201T380 1495L432 1507Q447 1378 499 1328T651 1278Q747 1278 814 1325T948 1507L1005 1495Z"  />
<glyph unicode="&#x116;" horiz-adv-x="1337" d="M1309 1077H1235Q1228 1182 1195 1246T1119 1328T915 1346H688L557 774H717Q830 774 889 822T1004 1008H1077L950 453H877Q877 561 872 602T831 670T698 696H539L438 264Q426 213 426 168Q426 114 464 96T639 78Q792 78 854 88T955 124T1071 247T1192 418H1264L1141 0H-37L-23 66Q112 76 152 98T209 188L446 1219Q451 1241 451 1255Q451 1339 274 1354L291 1419H1389L1309 1077ZM906 1597Q854 1597 817 1636T779 1728Q779 1783 816 1823T906 1863Q960 1863 997 1826T1035 1736Q1035 1680 998 1639T906 1597Z"  />
<glyph unicode="&#x117;" horiz-adv-x="967" d="M268 408Q268 84 498 84Q676 84 825 283L883 240Q801 115 680 43T432 -29Q257 -29 164 70T70 352Q70 616 234 813T643 1010Q778 1010 852 955T926 801Q926 629 756 538T268 408ZM274 477Q550 511 645 599T741 825Q741 938 625 938Q506 938 404 809T274 477ZM671 1247Q619 1247 582 1286T544 1378Q544 1433 581 1473T671 1513Q725 1513 762 1476T800 1386Q800 1330 763 1289T671 1247Z"  />
<glyph unicode="&#x118;" horiz-adv-x="1337" d="M1309 1077H1235Q1228 1182 1195 1246T1119 1328T915 1346H688L557 774H717Q830 774 889 822T1004 1008H1077L950 453H877Q877 561 872 602T831 670T698 696H539L438 264Q426 213 426 168Q426 114 464 96T639 78Q792 78 854 88T955 124T1071 247T1192 418H1264L1141 0H-37L-23 66Q112 76 152 98T209 188L446 1219Q451 1241 451 1255Q451 1339 274 1354L291 1419H1389L1309 1077ZM1013 -444H899Q661 -444 661 -287Q661 -110 952 39H1013Q823 -93 823 -256Q823 -373 1026 -373L1013 -444Z"  />
<glyph unicode="&#x119;" horiz-adv-x="967" d="M268 408Q268 84 498 84Q676 84 825 283L883 240Q801 115 680 43T432 -29Q257 -29 164 70T70 352Q70 616 234 813T643 1010Q778 1010 852 955T926 801Q926 629 756 538T268 408ZM274 477Q550 511 645 599T741 825Q741 938 625 938Q506 938 404 809T274 477ZM667 -444H553Q315 -444 315 -287Q315 -110 606 39H667Q477 -93 477 -256Q477 -373 680 -373L667 -444Z"  />
<glyph unicode="&#x11A;" horiz-adv-x="1337" d="M1309 1077H1235Q1228 1182 1195 1246T1119 1328T915 1346H688L557 774H717Q830 774 889 822T1004 1008H1077L950 453H877Q877 561 872 602T831 670T698 696H539L438 264Q426 213 426 168Q426 114 464 96T639 78Q792 78 854 88T955 124T1071 247T1192 418H1264L1141 0H-37L-23 66Q112 76 152 98T209 188L446 1219Q451 1241 451 1255Q451 1339 274 1354L291 1419H1389L1309 1077ZM1239 1837L950 1552Q915 1517 899 1512T850 1507Q799 1507 770 1548L590 1837L639 1870L872 1657L1194 1870L1239 1837Z"  />
<glyph unicode="&#x11B;" horiz-adv-x="967" d="M268 408Q268 84 498 84Q676 84 825 283L883 240Q801 115 680 43T432 -29Q257 -29 164 70T70 352Q70 616 234 813T643 1010Q778 1010 852 955T926 801Q926 629 756 538T268 408ZM274 477Q550 511 645 599T741 825Q741 938 625 938Q506 938 404 809T274 477ZM718 1163Q693 1135 678 1127T622 1118Q560 1118 544 1159L372 1509L421 1542L644 1270L974 1542L1021 1509L718 1163Z"  />
<glyph unicode="&#x11C;" horiz-adv-x="1485" d="M1481 571Q1468 569 1450 567Q1358 557 1320 531T1264 436L1237 322Q1196 147 1190 90Q899 -33 668 -33Q418 -33 259 123T100 541Q100 920 351 1186T954 1452Q1193 1452 1346 1352L1403 1419H1483L1376 924H1294Q1293 1160 1207 1265T934 1370Q685 1370 511 1129T336 528Q336 306 440 178T729 49Q872 49 985 133Q1008 196 1040 332L1059 418Q1067 454 1067 471Q1067 524 1023 543T858 571L872 641H1495L1481 571ZM1260 1538L1211 1507L975 1718L656 1507L609 1538L900 1823Q946 1868 1000 1868Q1057 1868 1080 1827L1260 1538Z"  />
<glyph unicode="&#x11D;" horiz-adv-x="1174" d="M909 190Q839 -140 692 -292T281 -444Q10 -444 10 -299Q10 -254 38 -224T113 -193Q201 -193 274 -377H303Q453 -377 558 -246T709 135L702 137Q518 -20 373 -20Q230 -20 150 81T70 365Q70 620 242 815T643 1010Q782 1010 883 946L1067 993L1077 979L909 190ZM844 774Q853 817 811 877T659 938Q509 938 393 765T276 362Q276 90 459 90Q582 90 729 233L844 774ZM960 1118L734 1391L405 1118L357 1151L661 1497Q686 1526 702 1534T759 1542Q812 1542 837 1501L1009 1151L960 1118Z"  />
<glyph unicode="&#x11E;" horiz-adv-x="1485" d="M1481 571Q1468 569 1450 567Q1358 557 1320 531T1264 436L1237 322Q1196 147 1190 90Q899 -33 668 -33Q418 -33 259 123T100 541Q100 920 351 1186T954 1452Q1193 1452 1346 1352L1403 1419H1483L1376 924H1294Q1293 1160 1207 1265T934 1370Q685 1370 511 1129T336 528Q336 306 440 178T729 49Q872 49 985 133Q1008 196 1040 332L1059 418Q1067 454 1067 471Q1067 524 1023 543T858 571L872 641H1495L1481 571ZM1327 1851Q1210 1530 948 1530Q690 1530 690 1827V1851L745 1868Q762 1765 813 1720T975 1675Q1096 1675 1160 1727T1272 1868L1327 1851Z"  />
<glyph unicode="&#x11F;" horiz-adv-x="1174" d="M909 190Q839 -140 692 -292T281 -444Q10 -444 10 -299Q10 -254 38 -224T113 -193Q201 -193 274 -377H303Q453 -377 558 -246T709 135L702 137Q518 -20 373 -20Q230 -20 150 81T70 365Q70 620 242 815T643 1010Q782 1010 883 946L1067 993L1077 979L909 190ZM844 774Q853 817 811 877T659 938Q509 938 393 765T276 362Q276 90 459 90Q582 90 729 233L844 774ZM1026 1495Q906 1126 649 1126Q535 1126 468 1201T401 1495L453 1507Q468 1378 520 1328T672 1278Q768 1278 835 1325T969 1507L1026 1495Z"  />
<glyph unicode="&#x120;" horiz-adv-x="1485" d="M1481 571Q1468 569 1450 567Q1358 557 1320 531T1264 436L1237 322Q1196 147 1190 90Q899 -33 668 -33Q418 -33 259 123T100 541Q100 920 351 1186T954 1452Q1193 1452 1346 1352L1403 1419H1483L1376 924H1294Q1293 1160 1207 1265T934 1370Q685 1370 511 1129T336 528Q336 306 440 178T729 49Q872 49 985 133Q1008 196 1040 332L1059 418Q1067 454 1067 471Q1067 524 1023 543T858 571L872 641H1495L1481 571ZM949 1597Q897 1597 860 1636T822 1728Q822 1783 859 1823T949 1863Q1003 1863 1040 1826T1078 1736Q1078 1680 1041 1639T949 1597Z"  />
<glyph unicode="&#x121;" horiz-adv-x="1174" d="M909 190Q839 -140 692 -292T281 -444Q10 -444 10 -299Q10 -254 38 -224T113 -193Q201 -193 274 -377H303Q453 -377 558 -246T709 135L702 137Q518 -20 373 -20Q230 -20 150 81T70 365Q70 620 242 815T643 1010Q782 1010 883 946L1067 993L1077 979L909 190ZM844 774Q853 817 811 877T659 938Q509 938 393 765T276 362Q276 90 459 90Q582 90 729 233L844 774ZM706 1247Q654 1247 617 1286T579 1378Q579 1433 616 1473T706 1513Q760 1513 797 1476T835 1386Q835 1330 798 1289T706 1247Z"  />
<glyph unicode="&#x122;" horiz-adv-x="1485" d="M1481 571Q1468 569 1450 567Q1358 557 1320 531T1264 436L1237 322Q1196 147 1190 90Q899 -33 668 -33Q418 -33 259 123T100 541Q100 920 351 1186T954 1452Q1193 1452 1346 1352L1403 1419H1483L1376 924H1294Q1293 1160 1207 1265T934 1370Q685 1370 511 1129T336 528Q336 306 440 178T729 49Q872 49 985 133Q1008 196 1040 332L1059 418Q1067 454 1067 471Q1067 524 1023 543T858 571L872 641H1495L1481 571ZM504 -444L512 -387Q678 -380 709 -258H656Q545 -258 545 -182Q545 -139 581 -103T676 -66Q733 -66 769 -101T805 -197Q805 -315 720 -379T504 -444Z"  />
<glyph unicode="&#x123;" horiz-adv-x="1174" d="M909 190Q839 -140 692 -292T281 -444Q10 -444 10 -299Q10 -254 38 -224T113 -193Q201 -193 274 -377H303Q453 -377 558 -246T709 135L702 137Q518 -20 373 -20Q230 -20 150 81T70 365Q70 620 242 815T643 1010Q782 1010 883 946L1067 993L1077 979L909 190ZM844 774Q853 817 811 877T659 938Q509 938 393 765T276 362Q276 90 459 90Q582 90 729 233L844 774ZM854 1505L846 1448Q673 1439 647 1319H694Q813 1319 813 1229Q813 1182 778 1154T688 1126Q631 1126 592 1159T553 1257Q553 1367 636 1436T854 1505Z"  />
<glyph unicode="&#x124;" horiz-adv-x="1669" d="M1755 1354Q1692 1349 1627 1331T1540 1229L1303 195Q1298 173 1298 160Q1298 79 1458 66L1444 0H854L870 66Q1009 73 1042 105T1087 184L1204 696H539L424 195Q420 178 420 162Q420 112 458 93T580 66L563 0H-25L-10 66Q129 72 162 103T207 184L446 1219Q451 1241 451 1251Q451 1331 287 1354L301 1419H891L877 1354Q758 1344 718 1319T662 1229L559 780H1227L1325 1219Q1329 1237 1329 1251Q1329 1300 1279 1324T1167 1354L1182 1419H1772L1755 1354ZM1370 1538L1321 1507L1085 1718L766 1507L719 1538L1010 1823Q1056 1868 1110 1868Q1167 1868 1190 1827L1370 1538Z"  />
<glyph unicode="&#x125;" horiz-adv-x="1153" d="M1004 1505L770 1718L451 1505L403 1538L694 1823Q740 1868 795 1868Q847 1868 863 1842Q867 1834 872 1827L1053 1538L1004 1505ZM1079 51Q913 -16 838 -16Q678 -16 678 127Q678 178 694 238L793 610Q817 700 817 745Q817 891 690 891Q555 891 410 733L242 0H55L322 1157Q334 1209 334 1231Q334 1278 311 1302T170 1335L182 1397L555 1419L565 1405L434 842H438Q571 946 647 978T807 1010Q903 1010 957 955T1012 809Q1012 737 987 653L903 332Q879 240 879 195Q879 138 903 117T985 96Q1033 96 1094 117L1079 51Z"  />
<glyph unicode="&#x126;" horiz-adv-x="1669" d="M1303 195Q1298 173 1298 160Q1298 79 1458 66L1444 0H854L870 66Q1009 73 1042 105T1087 184L1204 696H539L424 195Q420 178 420 162Q420 112 458 93T580 66L563 0H-25L-10 66Q129 72 162 103T207 184L397 1014H213L233 1098H418L446 1219Q451 1241 451 1251Q451 1331 287 1354L301 1419H891L877 1354Q758 1344 718 1319T662 1229L631 1098H1298L1325 1219Q1329 1237 1329 1251Q1329 1300 1279 1324T1167 1354L1182 1419H1772L1755 1354Q1692 1349 1627 1331T1540 1229L1511 1098H1698L1677 1014H1491L1303 195ZM559 780H1227L1280 1014H612L559 780Z"  />
<glyph unicode="&#x127;" horiz-adv-x="1153" d="M434 842H438Q571 946 647 978T807 1010Q903 1010 957 955T1012 809Q1012 737 987 653L903 332Q879 240 879 195Q879 138 903 117T985 96Q1033 96 1094 117L1079 51Q913 -16 838 -16Q678 -16 678 127Q678 178 694 238L793 610Q817 700 817 745Q817 891 690 891Q555 891 410 733L242 0H55L326 1171H96L117 1253H344Q365 1337 365 1360Q365 1407 342 1431T201 1464L213 1526L586 1548L596 1534L530 1253H883L862 1171H512L434 842Z"  />
<glyph unicode="&#x128;" horiz-adv-x="799" d="M907 1354Q770 1344 726 1319T666 1231L426 193Q422 176 422 162Q422 79 610 66L596 0H-43L-29 66Q127 72 163 103T211 182L451 1221Q455 1238 455 1255Q455 1302 404 1321T268 1354L283 1419H922L907 1354ZM1021 1842Q993 1741 923 1670T767 1598Q685 1598 593 1649Q500 1700 455 1700Q414 1700 389 1679T314 1565L257 1590Q293 1695 360 1764T507 1833Q583 1833 677 1782Q771 1731 806 1731Q856 1731 888 1748T959 1864L1021 1842Z"  />
<glyph unicode="&#x129;" horiz-adv-x="608" d="M737 1464Q703 1368 630 1298T479 1227Q412 1227 348 1277Q283 1327 242 1327Q206 1327 180 1307T100 1194L49 1219Q158 1456 303 1456Q367 1456 433 1406Q499 1356 530 1356Q577 1356 607 1374T684 1487L737 1464ZM537 45Q377 -20 295 -20Q219 -20 177 18T135 123Q135 165 152 233L258 659Q281 751 281 803Q281 862 261 878T186 895Q154 895 74 877L88 940Q243 1010 326 1010Q481 1010 481 864Q481 814 467 754L358 330Q334 237 334 190Q334 92 442 92Q499 92 551 109L537 45Z"  />
<glyph unicode="&#x12A;" horiz-adv-x="799" d="M907 1354Q770 1344 726 1319T666 1231L426 193Q422 176 422 162Q422 79 610 66L596 0H-43L-29 66Q127 72 163 103T211 182L451 1221Q455 1238 455 1255Q455 1302 404 1321T268 1354L283 1419H922L907 1354ZM988 1661H302L331 1784H1017L988 1661Z"  />
<glyph unicode="&#x12B;" horiz-adv-x="608" d="M104 1290L133 1419H696L666 1290H104ZM537 45Q377 -20 295 -20Q219 -20 177 18T135 123Q135 165 152 233L258 659Q281 751 281 803Q281 862 261 878T186 895Q154 895 74 877L88 940Q243 1010 326 1010Q481 1010 481 864Q481 814 467 754L358 330Q334 237 334 190Q334 92 442 92Q499 92 551 109L537 45Z"  />
<glyph unicode="&#x12E;" horiz-adv-x="799" d="M907 1354Q770 1344 726 1319T666 1231L426 193Q422 176 422 162Q422 79 610 66L596 0H-43L-29 66Q127 72 163 103T211 182L451 1221Q455 1238 455 1255Q455 1302 404 1321T268 1354L283 1419H922L907 1354ZM474 -444H360Q122 -444 122 -287Q122 -110 413 39H474Q284 -93 284 -256Q284 -373 487 -373L474 -444Z"  />
<glyph unicode="&#x12F;" horiz-adv-x="608" d="M494 1245Q444 1245 407 1284T369 1378Q369 1433 406 1474T494 1516Q548 1516 585 1478T623 1386Q623 1330 586 1288T494 1245ZM537 45Q377 -20 295 -20Q219 -20 177 18T135 123Q135 165 152 233L258 659Q281 751 281 803Q281 862 261 878T186 895Q154 895 74 877L88 940Q243 1010 326 1010Q481 1010 481 864Q481 814 467 754L358 330Q334 237 334 190Q334 92 442 92Q499 92 551 109L537 45ZM478 -444H364Q126 -444 126 -287Q126 -110 417 39H478Q288 -93 288 -256Q288 -373 491 -373L478 -444Z"  />
<glyph unicode="&#x130;" horiz-adv-x="799" d="M907 1354Q770 1344 726 1319T666 1231L426 193Q422 176 422 162Q422 79 610 66L596 0H-43L-29 66Q127 72 163 103T211 182L451 1221Q455 1238 455 1255Q455 1302 404 1321T268 1354L283 1419H922L907 1354ZM638 1597Q586 1597 549 1636T511 1728Q511 1783 548 1823T638 1863Q692 1863 729 1826T767 1736Q767 1680 730 1639T638 1597Z"  />
<glyph unicode="&#x131;" horiz-adv-x="608" d="M537 45Q377 -20 295 -20Q219 -20 177 18T135 123Q135 165 152 233L258 659Q281 751 281 803Q281 862 261 878T186 895Q154 895 74 877L88 940Q243 1010 326 1010Q481 1010 481 864Q481 814 467 754L358 330Q334 237 334 190Q334 92 442 92Q499 92 551 109L537 45Z"  />
<glyph unicode="&#x132;" horiz-adv-x="1798" d="M907 1354Q770 1344 726 1319T666 1231L426 193Q422 176 422 162Q422 79 610 66L596 0H-43L-29 66Q127 72 163 103T211 182L451 1221Q455 1238 455 1255Q455 1302 404 1321T268 1354L283 1419H922L907 1354ZM1931 1354Q1801 1343 1761 1318T1706 1229L1516 383Q1479 218 1338 92T1004 -35Q865 -35 782 36T698 229Q698 330 747 403T877 477Q987 477 987 381Q987 301 873 173Q846 142 827 115Q872 37 1004 37Q1110 37 1184 118T1319 463L1489 1219Q1493 1237 1493 1251Q1493 1331 1338 1350L1303 1354L1317 1419H1948L1931 1354Z"  />
<glyph unicode="&#x133;" horiz-adv-x="1180" d="M494 1245Q444 1245 407 1284T369 1378Q369 1433 406 1474T494 1516Q548 1516 585 1478T623 1386Q623 1330 586 1288T494 1245ZM537 45Q377 -20 295 -20Q219 -20 177 18T135 123Q135 165 152 233L258 659Q281 751 281 803Q281 862 261 878T186 895Q154 895 74 877L88 940Q243 1010 326 1010Q481 1010 481 864Q481 814 467 754L358 330Q334 237 334 190Q334 92 442 92Q499 92 551 109L537 45ZM1086 1245Q1036 1245 999 1284T961 1378Q961 1433 998 1474T1086 1516Q1141 1516 1178 1478T1215 1386Q1215 1330 1178 1288T1086 1245ZM498 -362Q564 -358 617 -275T702 -65T807 400T881 803Q881 855 864 875T787 895Q734 895 664 872L678 938Q851 1010 926 1010Q1082 1010 1082 864Q1082 838 1032 588T937 144T839 -147T710 -312T559 -412T410 -444Q240 -444 240 -326Q240 -282 267 -250T340 -217Q412 -217 468 -312Q483 -338 498 -362Z"  />
<glyph unicode="&#x134;" horiz-adv-x="1061" d="M1194 1354Q1068 1344 1026 1320T967 1229L776 383Q738 215 595 90T258 -35Q118 -35 35 37T-49 229Q-49 329 0 403T129 477Q240 477 240 381Q240 299 126 173Q98 142 80 115Q121 37 258 37Q374 37 449 126T580 463L750 1219Q754 1237 754 1251Q754 1300 711 1321T563 1354L580 1419H1208L1194 1354ZM1223 1538L1174 1507L938 1718L619 1507L572 1538L863 1823Q909 1868 963 1868Q1020 1868 1043 1827L1223 1538Z"  />
<glyph unicode="&#x135;" horiz-adv-x="596" d="M-86 -362Q-20 -358 33 -275T118 -65T223 400T297 803Q297 855 280 875T203 895Q150 895 80 872L94 938Q267 1010 342 1010Q498 1010 498 864Q498 838 448 588T353 144T255 -147T126 -312T-25 -412T-174 -444Q-344 -444 -344 -326Q-344 -282 -317 -250T-244 -217Q-172 -217 -116 -312Q-101 -338 -86 -362ZM640 1118L414 1391L85 1118L37 1151L341 1497Q366 1526 382 1534T439 1542Q492 1542 517 1501L689 1151L640 1118Z"  />
<glyph unicode="&#x136;" horiz-adv-x="1421" d="M1581 1354L1545 1350Q1406 1335 1331 1270Q956 929 766 776Q903 565 1098 233Q1158 133 1211 104T1354 66L1335 0H975Q813 345 590 674H535L424 195Q420 178 420 162Q420 101 472 87T584 66L567 0H-20L-6 66Q128 72 162 105T207 184L446 1219Q451 1241 451 1253Q451 1298 411 1320T291 1354L305 1419H895L881 1354Q757 1344 717 1319T662 1229L545 723H565Q766 863 976 1058T1186 1309Q1186 1344 1051 1354L1065 1419H1597L1581 1354ZM524 -444L532 -387Q698 -380 729 -258H676Q565 -258 565 -182Q565 -139 601 -103T696 -66Q753 -66 789 -101T825 -197Q825 -315 740 -379T524 -444Z"  />
<glyph unicode="&#x137;" horiz-adv-x="1081" d="M815 811Q699 744 575 625Q726 241 775 166T913 90Q968 90 1044 113L1030 47Q878 -16 776 -16Q690 -16 635 51T444 485L328 385L242 0H55L352 1286Q365 1342 365 1360Q365 1407 342 1431T201 1464L213 1526L586 1548L596 1534L350 492H354Q526 676 674 813T867 976T958 1001Q1071 1001 1071 895Q1071 848 1035 812T950 776Q895 776 815 811ZM306 -444L314 -387Q480 -380 511 -258H458Q347 -258 347 -182Q347 -139 383 -103T478 -66Q535 -66 571 -101T607 -197Q607 -315 522 -379T306 -444Z"  />
<glyph unicode="&#x139;" horiz-adv-x="1237" d="M1083 0H-25L-10 66Q128 74 162 104T209 188L444 1214Q451 1245 451 1251Q451 1329 287 1354L301 1419H901L887 1354Q782 1346 732 1323T659 1225L438 260Q422 190 422 156Q422 106 458 90T629 74Q736 74 801 88T896 124T1008 246T1141 422H1210L1083 0ZM600 1507L574 1546Q665 1623 856 1808Q913 1868 979 1868Q1016 1868 1039 1848T1063 1796Q1063 1718 963 1674T600 1507Z"  />
<glyph unicode="&#x13A;" horiz-adv-x="584" d="M322 1507L295 1546Q457 1690 575 1808Q635 1868 700 1868Q784 1868 784 1796Q784 1754 756 1722T322 1507ZM322 330Q297 221 297 190Q297 92 403 92Q470 92 522 109L508 45Q352 -20 260 -20Q182 -20 139 20T96 123Q96 157 115 233L326 1157Q338 1210 338 1231Q338 1278 315 1302T174 1335L188 1397L559 1419L569 1405L322 330Z"  />
<glyph unicode="&#x13B;" horiz-adv-x="1237" d="M1083 0H-25L-10 66Q128 74 162 104T209 188L444 1214Q451 1245 451 1251Q451 1329 287 1354L301 1419H901L887 1354Q782 1346 732 1323T659 1225L438 260Q422 190 422 156Q422 106 458 90T629 74Q736 74 801 88T896 124T1008 246T1141 422H1210L1083 0ZM457 -444L465 -387Q631 -380 662 -258H609Q498 -258 498 -182Q498 -139 534 -103T629 -66Q686 -66 722 -101T758 -197Q758 -315 673 -379T457 -444Z"  />
<glyph unicode="&#x13C;" horiz-adv-x="584" d="M322 330Q297 222 297 190Q297 92 403 92Q470 92 522 109L508 45Q352 -20 260 -20Q182 -20 139 20T96 123Q96 157 115 233L356 1286Q369 1343 369 1360Q369 1407 346 1431T205 1464L219 1526L590 1548L600 1534L322 330ZM95 -444L103 -387Q269 -380 300 -258H247Q136 -258 136 -182Q136 -139 172 -103T267 -66Q324 -66 360 -101T396 -197Q396 -315 311 -379T95 -444Z"  />
<glyph unicode="&#x13D;" horiz-adv-x="1237" d="M1083 0H-25L-10 66Q128 74 162 104T209 188L444 1214Q451 1245 451 1251Q451 1329 287 1354L301 1419H901L887 1354Q782 1346 732 1323T659 1225L438 260Q422 190 422 156Q422 106 458 90T629 74Q736 74 801 88T896 124T1008 246T1141 422H1210L1083 0ZM981 892L950 956Q1168 1063 1202 1199H1159Q1040 1199 1040 1300Q1040 1352 1078 1393T1177 1435Q1310 1435 1310 1296Q1310 1055 981 892Z"  />
<glyph unicode="&#x13E;" horiz-adv-x="799" d="M322 330Q297 222 297 190Q297 92 403 92Q470 92 522 109L508 45Q352 -20 260 -20Q182 -20 139 20T96 123Q96 157 115 233L356 1286Q369 1343 369 1360Q369 1407 346 1431T205 1464L219 1526L590 1548L600 1534L322 330ZM646 999L615 1063Q833 1170 867 1306H824Q705 1306 705 1407Q705 1459 743 1500T842 1542Q975 1542 975 1403Q975 1162 646 999Z"  />
<glyph unicode="&#x13F;" horiz-adv-x="1237" d="M1083 0H-25L-10 66Q128 74 162 104T209 188L444 1214Q451 1245 451 1251Q451 1329 287 1354L301 1419H901L887 1354Q782 1346 732 1323T659 1225L438 260Q422 190 422 156Q422 106 458 90T629 74Q736 74 801 88T896 124T1008 246T1141 422H1210L1083 0ZM1061 588Q1004 588 965 627T926 723Q926 779 965 819T1061 860Q1117 860 1157 820T1198 723Q1198 665 1158 627T1061 588Z"  />
<glyph unicode="&#x140;" horiz-adv-x="862" d="M322 330Q297 222 297 190Q297 92 403 92Q470 92 522 109L508 45Q352 -20 260 -20Q182 -20 139 20T96 123Q96 157 115 233L356 1286Q369 1343 369 1360Q369 1407 346 1431T205 1464L219 1526L590 1548L600 1534L322 330ZM738 541Q686 541 649 580T611 672Q611 727 648 767T738 807Q792 807 829 770T867 680Q867 624 830 583T738 541Z"  />
<glyph unicode="&#x141;" horiz-adv-x="1237" d="M1083 0H-25L-10 66Q128 74 162 104T209 188L309 627L137 553L123 643L334 729L444 1214Q451 1245 451 1251Q451 1329 287 1354L301 1419H901L887 1354Q782 1346 732 1323T659 1225L565 819L852 940L866 850L543 717L438 260Q422 190 422 156Q422 106 458 90T629 74Q736 74 801 88T896 124T1008 246T1141 422H1210L1083 0Z"  />
<glyph unicode="&#x142;" horiz-adv-x="584" d="M428 791L582 856L598 772L406 692L322 330Q297 222 297 190Q297 92 403 92Q470 92 522 109L508 45Q352 -20 260 -20Q182 -20 139 20T96 123Q96 157 115 233L203 614L70 557L53 641L223 711L356 1286Q369 1342 369 1360Q369 1407 346 1431T205 1464L219 1526L590 1548L600 1534L428 791Z"  />
<glyph unicode="&#x143;" horiz-adv-x="1571" d="M1743 1354Q1593 1333 1541 1290T1440 1030L1198 -14H1110L526 1184L348 410Q322 297 322 219Q322 170 336 140T425 89T522 66L508 0H-76L-59 66Q67 86 129 122T248 399L408 1087Q420 1139 420 1188Q420 1327 213 1354L229 1419H637L1176 309L1339 1018Q1366 1135 1366 1206Q1366 1258 1352 1283T1275 1328T1165 1354L1182 1419H1759L1743 1354ZM866 1507L840 1546Q931 1623 1122 1808Q1179 1868 1245 1868Q1282 1868 1305 1848T1329 1796Q1329 1718 1229 1674T866 1507Z"  />
<glyph unicode="&#x144;" horiz-adv-x="1208" d="M1135 51Q964 -16 893 -16Q733 -16 733 127Q733 180 750 238L848 610Q872 701 872 745Q872 891 745 891Q606 891 465 733L297 0H111L258 647Q283 757 283 791Q283 847 263 866T188 885Q146 885 80 864L94 930Q244 997 336 997Q478 997 483 836H489Q634 950 706 980T862 1010Q958 1010 1012 955T1067 809Q1067 737 1042 653L958 332Q934 240 934 195Q934 138 958 117T1040 96Q1089 96 1149 117L1135 51ZM588 1110L553 1143Q683 1315 772 1450Q829 1538 909 1538Q944 1538 965 1516T987 1466Q987 1412 948 1378T703 1195Q653 1159 588 1110Z"  />
<glyph unicode="&#x145;" horiz-adv-x="1571" d="M1743 1354Q1593 1333 1541 1290T1440 1030L1198 -14H1110L526 1184L348 410Q322 297 322 219Q322 170 336 140T425 89T522 66L508 0H-76L-59 66Q67 86 129 122T248 399L408 1087Q420 1139 420 1188Q420 1327 213 1354L229 1419H637L1176 309L1339 1018Q1366 1135 1366 1206Q1366 1258 1352 1283T1275 1328T1165 1354L1182 1419H1759L1743 1354ZM490 -444L498 -387Q664 -380 695 -258H642Q531 -258 531 -182Q531 -139 567 -103T662 -66Q719 -66 755 -101T791 -197Q791 -315 706 -379T490 -444Z"  />
<glyph unicode="&#x146;" horiz-adv-x="1208" d="M1135 51Q964 -16 893 -16Q733 -16 733 127Q733 180 750 238L848 610Q872 701 872 745Q872 891 745 891Q606 891 465 733L297 0H111L258 647Q283 757 283 791Q283 847 263 866T188 885Q146 885 80 864L94 930Q244 997 336 997Q478 997 483 836H489Q634 950 706 980T862 1010Q958 1010 1012 955T1067 809Q1067 737 1042 653L958 332Q934 240 934 195Q934 138 958 117T1040 96Q1089 96 1149 117L1135 51ZM381 -444L389 -387Q555 -380 586 -258H533Q422 -258 422 -182Q422 -139 458 -103T553 -66Q610 -66 646 -101T682 -197Q682 -315 597 -379T381 -444Z"  />
<glyph unicode="&#x147;" horiz-adv-x="1571" d="M1743 1354Q1593 1333 1541 1290T1440 1030L1198 -14H1110L526 1184L348 410Q322 297 322 219Q322 170 336 140T425 89T522 66L508 0H-76L-59 66Q67 86 129 122T248 399L408 1087Q420 1139 420 1188Q420 1327 213 1354L229 1419H637L1176 309L1339 1018Q1366 1135 1366 1206Q1366 1258 1352 1283T1275 1328T1165 1354L1182 1419H1759L1743 1354ZM1341 1837L1052 1552Q1017 1517 1001 1512T952 1507Q901 1507 872 1548L692 1837L741 1870L974 1657L1296 1870L1341 1837Z"  />
<glyph unicode="&#x148;" horiz-adv-x="1208" d="M1135 51Q964 -16 893 -16Q733 -16 733 127Q733 180 750 238L848 610Q872 701 872 745Q872 891 745 891Q606 891 465 733L297 0H111L258 647Q283 757 283 791Q283 847 263 866T188 885Q146 885 80 864L94 930Q244 997 336 997Q478 997 483 836H489Q634 950 706 980T862 1010Q958 1010 1012 955T1067 809Q1067 737 1042 653L958 332Q934 240 934 195Q934 138 958 117T1040 96Q1089 96 1149 117L1135 51ZM753 1163Q728 1135 713 1127T657 1118Q595 1118 579 1159L407 1509L456 1542L679 1270L1009 1542L1056 1509L753 1163Z"  />
<glyph unicode="&#x149;" horiz-adv-x="1288" d="M83 987L52 1051Q270 1158 304 1294H261Q142 1294 142 1395Q142 1447 180 1488T279 1530Q412 1530 412 1391Q412 1150 83 987ZM1215 51Q1044 -16 973 -16Q813 -16 813 127Q813 180 830 238L928 610Q952 701 952 745Q952 891 825 891Q686 891 545 733L377 0H191L338 647Q363 757 363 791Q363 847 343 866T268 885Q226 885 160 864L174 930Q324 997 416 997Q558 997 563 836H569Q714 950 786 980T942 1010Q1038 1010 1092 955T1147 809Q1147 737 1122 653L1038 332Q1014 240 1014 195Q1014 138 1038 117T1120 96Q1169 96 1229 117L1215 51Z"  />
<glyph unicode="&#x14C;" horiz-adv-x="1495" d="M651 -35Q403 -35 252 124T100 541Q100 913 349 1182T926 1452Q1172 1452 1324 1294T1477 872Q1477 500 1226 233T651 -35ZM907 1368Q653 1368 495 1098T336 494Q336 281 422 165T670 49Q919 49 1080 315T1241 932Q1241 1139 1154 1253T907 1368ZM1294 1661H608L637 1784H1323L1294 1661Z"  />
<glyph unicode="&#x14D;" horiz-adv-x="1100" d="M440 -31Q275 -31 172 76T68 365Q68 633 235 821T653 1010Q829 1010 930 903T1032 616Q1032 354 866 162T440 -31ZM633 938Q464 938 367 756T270 332Q270 41 469 41Q630 41 729 220T829 653Q829 938 633 938ZM1035 1296H349L378 1419H1064L1035 1296Z"  />
<glyph unicode="&#x14E;" horiz-adv-x="1495" d="M651 -35Q403 -35 252 124T100 541Q100 913 349 1182T926 1452Q1172 1452 1324 1294T1477 872Q1477 500 1226 233T651 -35ZM907 1368Q653 1368 495 1098T336 494Q336 281 422 165T670 49Q919 49 1080 315T1241 932Q1241 1139 1154 1253T907 1368ZM1300 1851Q1183 1530 921 1530Q663 1530 663 1827V1851L718 1868Q735 1765 786 1720T948 1675Q1069 1675 1133 1727T1245 1868L1300 1851Z"  />
<glyph unicode="&#x14F;" horiz-adv-x="1100" d="M440 -31Q275 -31 172 76T68 365Q68 633 235 821T653 1010Q829 1010 930 903T1032 616Q1032 354 866 162T440 -31ZM633 938Q464 938 367 756T270 332Q270 41 469 41Q630 41 729 220T829 653Q829 938 633 938ZM1026 1495Q906 1126 649 1126Q535 1126 468 1201T401 1495L453 1507Q468 1378 520 1328T672 1278Q768 1278 835 1325T969 1507L1026 1495Z"  />
<glyph unicode="&#x150;" horiz-adv-x="1495" d="M651 -35Q403 -35 252 124T100 541Q100 913 349 1182T926 1452Q1172 1452 1324 1294T1477 872Q1477 500 1226 233T651 -35ZM907 1368Q653 1368 495 1098T336 494Q336 281 422 165T670 49Q919 49 1080 315T1241 932Q1241 1139 1154 1253T907 1368ZM663 1507L639 1542L896 1804Q957 1868 1003 1868Q1081 1868 1081 1792Q1081 1722 987 1677Q815 1595 663 1507ZM1048 1507L1024 1542L1298 1816Q1350 1868 1392 1868Q1468 1868 1468 1792Q1468 1721 1376 1677Q1124 1556 1048 1507Z"  />
<glyph unicode="&#x151;" horiz-adv-x="1100" d="M440 -31Q275 -31 172 76T68 365Q68 633 235 821T653 1010Q829 1010 930 903T1032 616Q1032 354 866 162T440 -31ZM633 938Q464 938 367 756T270 332Q270 41 469 41Q630 41 729 220T829 653Q829 938 633 938ZM753 1110L720 1139Q850 1315 931 1446Q990 1538 1050 1538Q1084 1538 1106 1516T1128 1466Q1128 1413 1095 1383T753 1110ZM401 1110L364 1139Q476 1298 563 1446Q615 1538 679 1538Q711 1538 732 1516T753 1466Q753 1419 728 1388T401 1110Z"  />
<glyph unicode="&#x152;" horiz-adv-x="2044" d="M2013 1077H1939Q1932 1182 1899 1247T1823 1329T1622 1346H1403L1272 774H1421Q1540 774 1602 830T1708 1008H1784L1655 453H1581Q1581 563 1576 603T1536 670T1403 696H1253L1153 264Q1141 212 1141 168Q1141 112 1177 95T1343 78Q1492 78 1555 88T1655 121T1770 240T1896 418H1968L1845 0H690Q448 0 274 137T100 528Q100 915 382 1167T1055 1419H2093L2013 1077ZM1188 1335Q1085 1341 1034 1341Q746 1341 541 1107T336 522Q336 321 448 200T758 78Q831 78 899 82L1188 1335Z"  />
<glyph unicode="&#x153;" horiz-adv-x="1690" d="M991 408Q991 84 1221 84Q1399 84 1548 283L1606 240Q1524 115 1403 43T1155 -29Q939 -29 842 139Q670 -31 440 -31Q275 -31 172 76T68 365Q68 633 235 821T653 1010Q867 1010 977 831Q1149 1010 1366 1010Q1501 1010 1575 955T1649 801Q1649 629 1479 538T991 408ZM997 477Q1269 511 1366 598T1464 825Q1464 938 1348 938Q1229 938 1127 809T997 477ZM633 938Q464 938 367 756T270 332Q270 41 469 41Q630 41 729 220T829 653Q829 938 633 938Z"  />
<glyph unicode="&#x154;" horiz-adv-x="1438" d="M1354 0H995Q918 197 676 645H526L422 188Q416 162 416 154Q416 115 439 95T590 66L573 0H-27L-10 66Q127 74 162 105T209 188L446 1225Q453 1256 453 1266Q453 1310 411 1328T287 1354L301 1419H940Q1121 1419 1225 1349T1329 1149Q1329 798 881 690Q953 549 1039 391Q1076 323 1122 233Q1160 162 1207 118T1370 66L1354 0ZM686 1343L547 727H688Q851 727 967 841T1083 1126Q1083 1231 1019 1287T846 1343H686ZM719 1507L693 1546Q784 1623 975 1808Q1032 1868 1098 1868Q1135 1868 1158 1848T1182 1796Q1182 1718 1082 1674T719 1507Z"  />
<glyph unicode="&#x155;" horiz-adv-x="944" d="M760 905Q626 905 461 717L299 0H113L258 647Q283 759 283 791Q283 847 263 866T188 885Q146 885 80 864L94 930Q244 997 336 997Q483 997 483 823H489L584 903Q707 1010 799 1010Q954 1010 954 846Q954 774 919 724T821 674Q715 674 715 760Q715 809 760 905ZM468 1110L433 1143Q563 1315 652 1450Q709 1538 789 1538Q824 1538 845 1516T867 1466Q867 1412 828 1378T583 1195Q533 1159 468 1110Z"  />
<glyph unicode="&#x156;" horiz-adv-x="1438" d="M1354 0H995Q918 197 676 645H526L422 188Q416 162 416 154Q416 115 439 95T590 66L573 0H-27L-10 66Q127 74 162 105T209 188L446 1225Q453 1256 453 1266Q453 1310 411 1328T287 1354L301 1419H940Q1121 1419 1225 1349T1329 1149Q1329 798 881 690Q953 549 1039 391Q1076 323 1122 233Q1160 162 1207 118T1370 66L1354 0ZM686 1343L547 727H688Q851 727 967 841T1083 1126Q1083 1231 1019 1287T846 1343H686ZM535 -444L543 -387Q709 -380 740 -258H687Q576 -258 576 -182Q576 -139 612 -103T707 -66Q764 -66 800 -101T836 -197Q836 -315 751 -379T535 -444Z"  />
<glyph unicode="&#x157;" horiz-adv-x="944" d="M760 905Q626 905 461 717L299 0H113L258 647Q283 759 283 791Q283 847 263 866T188 885Q146 885 80 864L94 930Q244 997 336 997Q483 997 483 823H489L584 903Q707 1010 799 1010Q954 1010 954 846Q954 774 919 724T821 674Q715 674 715 760Q715 809 760 905ZM71 -444L79 -387Q245 -380 276 -258H223Q112 -258 112 -182Q112 -139 148 -103T243 -66Q300 -66 336 -101T372 -197Q372 -315 287 -379T71 -444Z"  />
<glyph unicode="&#x158;" horiz-adv-x="1438" d="M1354 0H995Q918 197 676 645H526L422 188Q416 162 416 154Q416 115 439 95T590 66L573 0H-27L-10 66Q127 74 162 105T209 188L446 1225Q453 1256 453 1266Q453 1310 411 1328T287 1354L301 1419H940Q1121 1419 1225 1349T1329 1149Q1329 798 881 690Q953 549 1039 391Q1076 323 1122 233Q1160 162 1207 118T1370 66L1354 0ZM686 1343L547 727H688Q851 727 967 841T1083 1126Q1083 1231 1019 1287T846 1343H686ZM1202 1837L913 1552Q878 1517 862 1512T813 1507Q762 1507 733 1548L553 1837L602 1870L835 1657L1157 1870L1202 1837Z"  />
<glyph unicode="&#x159;" horiz-adv-x="944" d="M760 905Q626 905 461 717L299 0H113L258 647Q283 759 283 791Q283 847 263 866T188 885Q146 885 80 864L94 930Q244 997 336 997Q483 997 483 823H489L584 903Q707 1010 799 1010Q954 1010 954 846Q954 774 919 724T821 674Q715 674 715 760Q715 809 760 905ZM615 1163Q590 1135 575 1127T519 1118Q457 1118 441 1159L269 1509L318 1542L541 1270L871 1542L918 1509L615 1163Z"  />
<glyph unicode="&#x15A;" horiz-adv-x="1149" d="M1098 948H1018Q1009 1190 935 1279T711 1368Q593 1368 513 1288T432 1094Q432 987 484 936T689 828Q932 737 998 648T1065 459Q1065 250 900 111T494 -29Q280 -29 129 72L72 0H-8L88 485H170Q194 53 528 53Q679 53 768 136T858 360Q858 460 807 518T632 622Q472 679 397 719T274 835T225 1010Q225 1193 377 1321T735 1450Q926 1450 1065 1352L1118 1419H1198L1098 948ZM608 1507L582 1546Q673 1623 864 1808Q921 1868 987 1868Q1024 1868 1047 1848T1071 1796Q1071 1718 971 1674T608 1507Z"  />
<glyph unicode="&#x15B;" horiz-adv-x="883" d="M592 924L574 931Q556 938 518 938Q426 938 373 889T319 762Q319 701 355 664T514 582Q667 525 720 462T774 313Q774 165 657 68T362 -29Q219 -29 118 23T16 162Q16 203 45 236T117 270Q208 270 245 150Q255 118 266 88Q312 43 385 43Q602 43 602 242Q602 303 558 345T395 426Q150 510 150 694Q150 823 263 916T545 1010Q677 1010 759 971T842 854Q842 813 813 779T741 745Q651 745 614 863Q604 895 592 924ZM429 1110L394 1143Q524 1315 613 1450Q670 1538 750 1538Q785 1538 806 1516T828 1466Q828 1412 789 1378T544 1195Q494 1159 429 1110Z"  />
<glyph unicode="&#x15C;" horiz-adv-x="1149" d="M1098 948H1018Q1009 1190 935 1279T711 1368Q593 1368 513 1288T432 1094Q432 987 484 936T689 828Q932 737 998 648T1065 459Q1065 250 900 111T494 -29Q280 -29 129 72L72 0H-8L88 485H170Q194 53 528 53Q679 53 768 136T858 360Q858 460 807 518T632 622Q472 679 397 719T274 835T225 1010Q225 1193 377 1321T735 1450Q926 1450 1065 1352L1118 1419H1198L1098 948ZM1079 1538L1030 1507L794 1718L475 1507L428 1538L719 1823Q765 1868 819 1868Q876 1868 899 1827L1079 1538Z"  />
<glyph unicode="&#x15D;" horiz-adv-x="883" d="M592 924L574 931Q556 938 518 938Q426 938 373 889T319 762Q319 701 355 664T514 582Q667 525 720 462T774 313Q774 165 657 68T362 -29Q219 -29 118 23T16 162Q16 203 45 236T117 270Q208 270 245 150Q255 118 266 88Q312 43 385 43Q602 43 602 242Q602 303 558 345T395 426Q150 510 150 694Q150 823 263 916T545 1010Q677 1010 759 971T842 854Q842 813 813 779T741 745Q651 745 614 863Q604 895 592 924ZM825 1118L599 1391L270 1118L222 1151L526 1497Q551 1526 567 1534T624 1542Q677 1542 702 1501L874 1151L825 1118Z"  />
<glyph unicode="&#x15E;" horiz-adv-x="1149" d="M1098 948H1018Q1009 1190 935 1279T711 1368Q593 1368 513 1288T432 1094Q432 987 484 936T689 828Q932 737 998 648T1065 459Q1065 250 900 111T494 -29Q280 -29 129 72L72 0H-8L88 485H170Q194 53 528 53Q679 53 768 136T858 360Q858 460 807 518T632 622Q472 679 397 719T274 835T225 1010Q225 1193 377 1321T735 1450Q926 1450 1065 1352L1118 1419H1198L1098 948ZM296 -444L311 -373Q485 -373 533 -347T581 -274Q581 -207 428 -207L473 16H550L526 -98Q619 -98 676 -131T733 -225Q733 -444 296 -444Z"  />
<glyph unicode="&#x15F;" horiz-adv-x="883" d="M592 924L574 931Q556 938 518 938Q426 938 373 889T319 762Q319 701 355 664T514 582Q667 525 720 462T774 313Q774 165 657 68T362 -29Q219 -29 118 23T16 162Q16 203 45 236T117 270Q208 270 245 150Q255 118 266 88Q312 43 385 43Q602 43 602 242Q602 303 558 345T395 426Q150 510 150 694Q150 823 263 916T545 1010Q677 1010 759 971T842 854Q842 813 813 779T741 745Q651 745 614 863Q604 895 592 924ZM173 -444L188 -373Q362 -373 410 -347T458 -274Q458 -207 305 -207L350 16H427L403 -98Q496 -98 553 -131T610 -225Q610 -444 173 -444Z"  />
<glyph unicode="&#x160;" horiz-adv-x="1149" d="M1098 948H1018Q1009 1190 935 1279T711 1368Q593 1368 513 1288T432 1094Q432 987 484 936T689 828Q932 737 998 648T1065 459Q1065 250 900 111T494 -29Q280 -29 129 72L72 0H-8L88 485H170Q194 53 528 53Q679 53 768 136T858 360Q858 460 807 518T632 622Q472 679 397 719T274 835T225 1010Q225 1193 377 1321T735 1450Q926 1450 1065 1352L1118 1419H1198L1098 948ZM1139 1837L850 1552Q815 1517 799 1512T750 1507Q699 1507 670 1548L490 1837L539 1870L772 1657L1094 1870L1139 1837Z"  />
<glyph unicode="&#x161;" horiz-adv-x="883" d="M592 924L574 931Q556 938 518 938Q426 938 373 889T319 762Q319 701 355 664T514 582Q667 525 720 462T774 313Q774 165 657 68T362 -29Q219 -29 118 23T16 162Q16 203 45 236T117 270Q208 270 245 150Q255 118 266 88Q312 43 385 43Q602 43 602 242Q602 303 558 345T395 426Q150 510 150 694Q150 823 263 916T545 1010Q677 1010 759 971T842 854Q842 813 813 779T741 745Q651 745 614 863Q604 895 592 924ZM640 1163Q615 1135 600 1127T544 1118Q482 1118 466 1159L294 1509L343 1542L566 1270L896 1542L943 1509L640 1163Z"  />
<glyph unicode="&#x162;" horiz-adv-x="1268" d="M1366 1034H1296Q1290 1155 1256 1235T1175 1331T989 1346H928L664 201Q659 179 659 166Q659 116 704 98T860 66L844 0H174L190 66Q340 77 384 99T449 193L715 1346H662Q519 1346 471 1330T338 1224T201 1034H129L219 1419H1454L1366 1034ZM305 -444L320 -373Q494 -373 542 -347T590 -274Q590 -207 437 -207L482 16H559L535 -98Q628 -98 685 -131T742 -225Q742 -444 305 -444Z"  />
<glyph unicode="&#x163;" horiz-adv-x="711" d="M752 887H473L346 336Q326 249 326 201Q326 145 353 120T453 94Q526 94 598 119L582 45Q421 -20 303 -20Q121 -20 121 129Q121 171 131 217L287 887H109L129 977H311L381 1270H561L494 977H772L752 887ZM56 -444L71 -373Q245 -373 293 -347T341 -274Q341 -207 188 -207L233 16H310L286 -98Q379 -98 436 -131T493 -225Q493 -444 56 -444Z"  />
<glyph unicode="&#x164;" horiz-adv-x="1268" d="M1366 1034H1296Q1290 1155 1256 1235T1175 1331T989 1346H928L664 201Q659 179 659 166Q659 116 704 98T860 66L844 0H174L190 66Q340 77 384 99T449 193L715 1346H662Q519 1346 471 1330T338 1224T201 1034H129L219 1419H1454L1366 1034ZM1231 1837L942 1552Q907 1517 891 1512T842 1507Q791 1507 762 1548L582 1837L631 1870L864 1657L1186 1870L1231 1837Z"  />
<glyph unicode="&#x165;" horiz-adv-x="711" d="M657 1133Q850 1217 885 1337H848Q729 1337 729 1427Q729 1476 768 1517T868 1559Q1001 1559 1001 1432Q1001 1212 682 1073L657 1133ZM752 887H473L346 336Q326 249 326 201Q326 145 353 120T453 94Q526 94 598 119L582 45Q421 -20 303 -20Q121 -20 121 129Q121 171 131 217L287 887H109L129 977H311L381 1270H561L494 977H772L752 887Z"  />
<glyph unicode="&#x166;" horiz-adv-x="1268" d="M664 201Q659 179 659 166Q659 116 704 98T860 66L844 0H174L190 66Q340 77 384 99T449 193L563 694H252L272 782H584L715 1346H662Q519 1346 471 1330T338 1224T201 1034H129L219 1419H1454L1366 1034H1296Q1290 1155 1256 1235T1175 1331T989 1346H928L797 782H1108L1087 694H776L664 201Z"  />
<glyph unicode="&#x167;" horiz-adv-x="711" d="M346 336Q326 251 326 201Q326 145 353 120T453 94Q526 94 598 119L582 45Q421 -20 303 -20Q121 -20 121 129Q121 171 131 217L193 485H23L43 565H213L287 887H109L129 977H311L381 1270H561L494 977H772L752 887H473L399 565H633L612 485H381L346 336Z"  />
<glyph unicode="&#x168;" horiz-adv-x="1548" d="M1720 1354Q1605 1344 1538 1305T1417 1032L1320 602Q1269 375 1232 292T1115 132T917 11T659 -35Q450 -35 332 54T213 293Q213 340 221 375L418 1219Q422 1236 422 1251Q422 1329 289 1350Q273 1352 262 1354L279 1419H868L852 1354Q742 1345 696 1322T633 1229L451 438Q436 373 436 319Q436 74 721 74Q824 74 908 107T1055 202T1144 327T1215 574T1301 953T1343 1221Q1343 1280 1301 1309T1141 1354L1157 1419H1737L1720 1354ZM1413 1842Q1385 1741 1315 1670T1159 1598Q1077 1598 985 1649Q892 1700 847 1700Q806 1700 781 1679T706 1565L649 1590Q685 1695 752 1764T899 1833Q975 1833 1069 1782Q1163 1731 1198 1731Q1248 1731 1280 1748T1351 1864L1413 1842Z"  />
<glyph unicode="&#x169;" horiz-adv-x="1178" d="M1108 51Q947 -16 866 -16Q793 -16 750 26T707 139H700Q512 -25 342 -25Q245 -25 192 30T139 176Q139 238 162 332L240 647Q262 736 262 791Q262 850 242 867T170 885Q132 885 59 862L76 928Q228 997 307 997Q463 997 463 854Q463 801 446 743L358 373Q336 281 336 240Q336 94 457 94Q591 94 723 229L897 981L1071 993L1083 979L936 336Q909 218 909 195Q909 138 934 117T1016 96Q1068 96 1122 115L1108 51ZM1087 1473Q1059 1372 989 1301T833 1229Q751 1229 659 1280Q566 1331 521 1331Q480 1331 455 1310T380 1196L323 1221Q359 1326 426 1395T573 1464Q649 1464 743 1413Q837 1362 872 1362Q922 1362 954 1379T1025 1495L1087 1473Z"  />
<glyph unicode="&#x16A;" horiz-adv-x="1548" d="M1720 1354Q1605 1344 1538 1305T1417 1032L1320 602Q1269 375 1232 292T1115 132T917 11T659 -35Q450 -35 332 54T213 293Q213 340 221 375L418 1219Q422 1236 422 1251Q422 1329 289 1350Q273 1352 262 1354L279 1419H868L852 1354Q742 1345 696 1322T633 1229L451 438Q436 373 436 319Q436 74 721 74Q824 74 908 107T1055 202T1144 327T1215 574T1301 953T1343 1221Q1343 1280 1301 1309T1141 1354L1157 1419H1737L1720 1354ZM1376 1661H690L719 1784H1405L1376 1661Z"  />
<glyph unicode="&#x16B;" horiz-adv-x="1178" d="M1108 51Q947 -16 866 -16Q793 -16 750 26T707 139H700Q512 -25 342 -25Q245 -25 192 30T139 176Q139 238 162 332L240 647Q262 736 262 791Q262 850 242 867T170 885Q132 885 59 862L76 928Q228 997 307 997Q463 997 463 854Q463 801 446 743L358 373Q336 281 336 240Q336 94 457 94Q591 94 723 229L897 981L1071 993L1083 979L936 336Q909 218 909 195Q909 138 934 117T1016 96Q1068 96 1122 115L1108 51ZM1037 1296H351L380 1419H1066L1037 1296Z"  />
<glyph unicode="&#x16C;" horiz-adv-x="1548" d="M1720 1354Q1605 1344 1538 1305T1417 1032L1320 602Q1269 375 1232 292T1115 132T917 11T659 -35Q450 -35 332 54T213 293Q213 340 221 375L418 1219Q422 1236 422 1251Q422 1329 289 1350Q273 1352 262 1354L279 1419H868L852 1354Q742 1345 696 1322T633 1229L451 438Q436 373 436 319Q436 74 721 74Q824 74 908 107T1055 202T1144 327T1215 574T1301 953T1343 1221Q1343 1280 1301 1309T1141 1354L1157 1419H1737L1720 1354ZM1386 1851Q1269 1530 1007 1530Q749 1530 749 1827V1851L804 1868Q821 1765 872 1720T1034 1675Q1155 1675 1219 1727T1331 1868L1386 1851Z"  />
<glyph unicode="&#x16D;" horiz-adv-x="1178" d="M1108 51Q947 -16 866 -16Q793 -16 750 26T707 139H700Q512 -25 342 -25Q245 -25 192 30T139 176Q139 238 162 332L240 647Q262 736 262 791Q262 850 242 867T170 885Q132 885 59 862L76 928Q228 997 307 997Q463 997 463 854Q463 801 446 743L358 373Q336 281 336 240Q336 94 457 94Q591 94 723 229L897 981L1071 993L1083 979L936 336Q909 218 909 195Q909 138 934 117T1016 96Q1068 96 1122 115L1108 51ZM1026 1495Q906 1126 649 1126Q535 1126 468 1201T401 1495L453 1507Q468 1378 520 1328T672 1278Q768 1278 835 1325T969 1507L1026 1495Z"  />
<glyph unicode="&#x16E;" horiz-adv-x="1548" d="M1720 1354Q1605 1344 1538 1305T1417 1032L1320 602Q1269 375 1232 292T1115 132T917 11T659 -35Q450 -35 332 54T213 293Q213 340 221 375L418 1219Q422 1236 422 1251Q422 1329 289 1350Q273 1352 262 1354L279 1419H868L852 1354Q742 1345 696 1322T633 1229L451 438Q436 373 436 319Q436 74 721 74Q824 74 908 107T1055 202T1144 327T1215 574T1301 953T1343 1221Q1343 1280 1301 1309T1141 1354L1157 1419H1737L1720 1354ZM1010 1419Q905 1419 846 1468T787 1601Q787 1713 873 1788T1086 1864Q1187 1864 1248 1812T1309 1677Q1309 1570 1225 1495T1010 1419ZM1075 1804Q1004 1804 958 1745T911 1603Q911 1479 1020 1479Q1094 1479 1138 1537T1182 1677Q1182 1804 1075 1804Z"  />
<glyph unicode="&#x16F;" horiz-adv-x="1178" d="M1108 51Q947 -16 866 -16Q793 -16 750 26T707 139H700Q512 -25 342 -25Q245 -25 192 30T139 176Q139 238 162 332L240 647Q262 736 262 791Q262 850 242 867T170 885Q132 885 59 862L76 928Q228 997 307 997Q463 997 463 854Q463 801 446 743L358 373Q336 281 336 240Q336 94 457 94Q591 94 723 229L897 981L1071 993L1083 979L936 336Q909 218 909 195Q909 138 934 117T1016 96Q1068 96 1122 115L1108 51ZM667 1114Q562 1114 503 1163T444 1296Q444 1408 530 1483T743 1559Q844 1559 905 1507T966 1372Q966 1265 882 1190T667 1114ZM732 1499Q661 1499 615 1440T568 1298Q568 1174 677 1174Q751 1174 795 1232T839 1372Q839 1499 732 1499Z"  />
<glyph unicode="&#x170;" horiz-adv-x="1548" d="M1720 1354Q1605 1344 1538 1305T1417 1032L1320 602Q1269 375 1232 292T1115 132T917 11T659 -35Q450 -35 332 54T213 293Q213 340 221 375L418 1219Q422 1236 422 1251Q422 1329 289 1350Q273 1352 262 1354L279 1419H868L852 1354Q742 1345 696 1322T633 1229L451 438Q436 373 436 319Q436 74 721 74Q824 74 908 107T1055 202T1144 327T1215 574T1301 953T1343 1221Q1343 1280 1301 1309T1141 1354L1157 1419H1737L1720 1354ZM702 1507L678 1542L935 1804Q996 1868 1042 1868Q1120 1868 1120 1792Q1120 1722 1026 1677Q854 1595 702 1507ZM1087 1507L1063 1542L1337 1816Q1389 1868 1431 1868Q1507 1868 1507 1792Q1507 1721 1415 1677Q1163 1556 1087 1507Z"  />
<glyph unicode="&#x171;" horiz-adv-x="1178" d="M1108 51Q947 -16 866 -16Q793 -16 750 26T707 139H700Q512 -25 342 -25Q245 -25 192 30T139 176Q139 238 162 332L240 647Q262 736 262 791Q262 850 242 867T170 885Q132 885 59 862L76 928Q228 997 307 997Q463 997 463 854Q463 801 446 743L358 373Q336 281 336 240Q336 94 457 94Q591 94 723 229L897 981L1071 993L1083 979L936 336Q909 218 909 195Q909 138 934 117T1016 96Q1068 96 1122 115L1108 51ZM778 1110L745 1139Q875 1315 956 1446Q1015 1538 1075 1538Q1109 1538 1131 1516T1153 1466Q1153 1413 1120 1383T778 1110ZM426 1110L389 1139Q501 1298 588 1446Q640 1538 704 1538Q736 1538 757 1516T778 1466Q778 1419 753 1388T426 1110Z"  />
<glyph unicode="&#x172;" horiz-adv-x="1548" d="M1720 1354Q1605 1344 1538 1305T1417 1032L1320 602Q1269 375 1232 292T1115 132T917 11T659 -35Q450 -35 332 54T213 293Q213 340 221 375L418 1219Q422 1236 422 1251Q422 1329 289 1350Q273 1352 262 1354L279 1419H868L852 1354Q742 1345 696 1322T633 1229L451 438Q436 373 436 319Q436 74 721 74Q824 74 908 107T1055 202T1144 327T1215 574T1301 953T1343 1221Q1343 1280 1301 1309T1141 1354L1157 1419H1737L1720 1354ZM979 -444H865Q627 -444 627 -287Q627 -110 918 39H979Q789 -93 789 -256Q789 -373 992 -373L979 -444Z"  />
<glyph unicode="&#x173;" horiz-adv-x="1178" d="M1108 51Q947 -16 866 -16Q793 -16 750 26T707 139H700Q512 -25 342 -25Q245 -25 192 30T139 176Q139 238 162 332L240 647Q262 736 262 791Q262 850 242 867T170 885Q132 885 59 862L76 928Q228 997 307 997Q463 997 463 854Q463 801 446 743L358 373Q336 281 336 240Q336 94 457 94Q591 94 723 229L897 981L1071 993L1083 979L936 336Q909 218 909 195Q909 138 934 117T1016 96Q1068 96 1122 115L1108 51ZM925 -444H811Q573 -444 573 -287Q573 -110 864 39H925Q735 -93 735 -256Q735 -373 938 -373L925 -444Z"  />
<glyph unicode="&#x174;" horiz-adv-x="1999" d="M2218 1354Q2143 1349 2084 1313T1997 1232T1737 757L1323 -18H1233L1116 1075L496 -18H408L343 1225Q335 1338 182 1354L197 1419H768L754 1354Q553 1342 553 1282Q553 1247 600 338L1196 1399H1288L1407 315Q1870 1202 1870 1278Q1870 1342 1694 1354L1708 1419H2232L2218 1354ZM1571 1538L1522 1507L1286 1718L967 1507L920 1538L1211 1823Q1257 1868 1311 1868Q1368 1868 1391 1827L1571 1538Z"  />
<glyph unicode="&#x175;" horiz-adv-x="1683" d="M737 166Q545 -29 397 -29Q274 -29 208 39T141 233Q141 283 156 332L240 647Q262 730 262 791Q262 850 242 867T170 885Q132 885 59 862L76 928Q228 997 307 997Q463 997 463 854Q463 801 446 743L354 375Q334 295 334 240Q334 88 465 88Q604 88 723 223L899 981L1073 993L1085 979L944 371Q922 276 922 242Q922 86 1092 86Q1234 86 1358 246T1483 612Q1483 700 1430 763Q1376 826 1376 893Q1376 944 1411 977T1495 1010Q1622 1010 1622 823Q1622 492 1445 231T1018 -31Q920 -31 842 22T737 166ZM1248 1118L1022 1391L693 1118L645 1151L949 1497Q974 1526 990 1534T1047 1542Q1100 1542 1125 1501L1297 1151L1248 1118Z"  />
<glyph unicode="&#x176;" horiz-adv-x="1260" d="M1501 1354Q1452 1348 1396 1322T1273 1232T1008 923T774 623T717 479L653 203Q649 186 649 168Q649 103 723 87T848 66L834 0H170L184 66Q329 76 374 98T438 193L510 504Q518 539 518 553Q518 600 469 761L365 1105Q310 1287 256 1318T143 1354L160 1419H741L725 1354Q596 1349 562 1336T528 1298Q528 1256 711 688Q1169 1242 1169 1288Q1169 1342 997 1354L1014 1419H1518L1501 1354ZM1204 1538L1155 1507L919 1718L600 1507L553 1538L844 1823Q890 1868 944 1868Q1001 1868 1024 1827L1204 1538Z"  />
<glyph unicode="&#x177;" horiz-adv-x="1147" d="M913 197Q841 -130 687 -287T281 -444Q18 -444 18 -303Q18 -258 45 -227T119 -195Q210 -195 281 -377H305Q446 -377 556 -245T717 145H711Q520 -20 346 -20Q252 -20 196 34T139 180Q139 242 162 336L240 647Q262 735 262 791Q262 850 242 867T170 885Q132 885 59 862L76 928Q228 997 307 997Q465 997 465 854Q465 803 449 743L358 379Q334 283 334 244Q334 98 463 98Q603 98 735 233L901 981L1073 993L1085 979L913 197ZM958 1118L732 1391L403 1118L355 1151L659 1497Q684 1526 700 1534T757 1542Q810 1542 835 1501L1007 1151L958 1118Z"  />
<glyph unicode="&#x178;" horiz-adv-x="1260" d="M1501 1354Q1452 1348 1396 1322T1273 1232T1008 923T774 623T717 479L653 203Q649 186 649 168Q649 103 723 87T848 66L834 0H170L184 66Q329 76 374 98T438 193L510 504Q518 539 518 553Q518 600 469 761L365 1105Q310 1287 256 1318T143 1354L160 1419H741L725 1354Q596 1349 562 1336T528 1298Q528 1256 711 688Q1169 1242 1169 1288Q1169 1342 997 1354L1014 1419H1518L1501 1354ZM1155 1608Q1106 1608 1072 1643T1037 1731Q1037 1782 1071 1817T1155 1853Q1205 1853 1238 1818T1272 1731Q1272 1679 1239 1644T1155 1608ZM705 1608Q656 1608 621 1643T586 1731Q586 1782 621 1817T705 1853Q754 1853 789 1818T824 1731Q824 1679 789 1644T705 1608Z"  />
<glyph unicode="&#x179;" horiz-adv-x="1233" d="M1378 1384L207 76H528Q617 76 695 85T817 113T955 229T1128 442H1198L1049 0H-90L-82 35L1092 1343H778Q619 1343 556 1310T408 1194T260 1018H190L326 1419H1386L1378 1384ZM696 1507L670 1546Q761 1623 952 1808Q1009 1868 1075 1868Q1112 1868 1135 1848T1159 1796Q1159 1718 1059 1674T696 1507Z"  />
<glyph unicode="&#x17A;" horiz-adv-x="909" d="M922 920L207 80L297 78Q591 71 629 106T766 348H825L758 0H-27L-10 70L692 899H561Q359 899 310 865T197 676H135L195 979H934L922 920ZM468 1110L433 1143Q563 1315 652 1450Q709 1538 789 1538Q824 1538 845 1516T867 1466Q867 1412 828 1378T583 1195Q533 1159 468 1110Z"  />
<glyph unicode="&#x17B;" horiz-adv-x="1233" d="M1378 1384L207 76H528Q617 76 695 85T817 113T955 229T1128 442H1198L1049 0H-90L-82 35L1092 1343H778Q619 1343 556 1310T408 1194T260 1018H190L326 1419H1386L1378 1384ZM844 1597Q792 1597 755 1636T717 1728Q717 1783 754 1823T844 1863Q898 1863 935 1826T973 1736Q973 1680 936 1639T844 1597Z"  />
<glyph unicode="&#x17C;" horiz-adv-x="909" d="M922 920L207 80L297 78Q591 71 629 106T766 348H825L758 0H-27L-10 70L692 899H561Q359 899 310 865T197 676H135L195 979H934L922 920ZM577 1247Q525 1247 488 1286T450 1378Q450 1433 487 1473T577 1513Q631 1513 668 1476T706 1386Q706 1330 669 1289T577 1247Z"  />
<glyph unicode="&#x17D;" horiz-adv-x="1233" d="M1378 1384L207 76H528Q617 76 695 85T817 113T955 229T1128 442H1198L1049 0H-90L-82 35L1092 1343H778Q619 1343 556 1310T408 1194T260 1018H190L326 1419H1386L1378 1384ZM1190 1837L901 1552Q866 1517 850 1512T801 1507Q750 1507 721 1548L541 1837L590 1870L823 1657L1145 1870L1190 1837Z"  />
<glyph unicode="&#x17E;" horiz-adv-x="909" d="M922 920L207 80L297 78Q591 71 629 106T766 348H825L758 0H-27L-10 70L692 899H561Q359 899 310 865T197 676H135L195 979H934L922 920ZM619 1163Q594 1135 579 1127T523 1118Q461 1118 445 1159L273 1509L322 1542L545 1270L875 1542L922 1509L619 1163Z"  />
<glyph unicode="&#x192;" horiz-adv-x="1063" d="M854 1239Q689 1213 612 838L588 717H852L831 625H575L515 314Q481 141 433 15T312 -199T149 -327T-35 -369Q-125 -369 -175 -332T-225 -233Q-225 -193 -196 -161T-119 -129Q-30 -129 37 -301Q121 -298 196 -155T385 625H170L190 717H395Q451 1000 592 1153T930 1307Q1021 1307 1069 1269T1118 1169Q1118 1127 1090 1095T1012 1063Q916 1063 854 1239Z"  />
<glyph unicode="&#x218;" horiz-adv-x="1149" d="M1098 948H1018Q1009 1190 935 1279T711 1368Q593 1368 513 1288T432 1094Q432 987 484 936T689 828Q932 737 998 648T1065 459Q1065 250 900 111T494 -29Q280 -29 129 72L72 0H-8L88 485H170Q194 53 528 53Q679 53 768 136T858 360Q858 460 807 518T632 622Q472 679 397 719T274 835T225 1010Q225 1193 377 1321T735 1450Q926 1450 1065 1352L1118 1419H1198L1098 948ZM340 -444L348 -387Q514 -380 545 -258H492Q381 -258 381 -182Q381 -139 417 -103T512 -66Q569 -66 605 -101T641 -197Q641 -315 556 -379T340 -444Z"  />
<glyph unicode="&#x219;" horiz-adv-x="883" d="M592 924L574 931Q556 938 518 938Q426 938 373 889T319 762Q319 701 355 664T514 582Q667 525 720 462T774 313Q774 165 657 68T362 -29Q219 -29 118 23T16 162Q16 203 45 236T117 270Q208 270 245 150Q255 118 266 88Q312 43 385 43Q602 43 602 242Q602 303 558 345T395 426Q150 510 150 694Q150 823 263 916T545 1010Q677 1010 759 971T842 854Q842 813 813 779T741 745Q651 745 614 863Q604 895 592 924ZM204 -444L212 -387Q378 -380 409 -258H356Q245 -258 245 -182Q245 -139 281 -103T376 -66Q433 -66 469 -101T505 -197Q505 -315 420 -379T204 -444Z"  />
<glyph unicode="&#x21A;" horiz-adv-x="1268" d="M1366 1034H1296Q1290 1155 1256 1235T1175 1331T989 1346H928L664 201Q659 179 659 166Q659 116 704 98T860 66L844 0H174L190 66Q340 77 384 99T449 193L715 1346H662Q519 1346 471 1330T338 1224T201 1034H129L219 1419H1454L1366 1034ZM340 -444L348 -387Q514 -380 545 -258H492Q381 -258 381 -182Q381 -139 417 -103T512 -66Q569 -66 605 -101T641 -197Q641 -315 556 -379T340 -444Z"  />
<glyph unicode="&#x21B;" horiz-adv-x="711" d="M752 887H473L346 336Q326 249 326 201Q326 145 353 120T453 94Q526 94 598 119L582 45Q421 -20 303 -20Q121 -20 121 129Q121 171 131 217L287 887H109L129 977H311L381 1270H561L494 977H772L752 887ZM155 -444L163 -387Q329 -380 360 -258H307Q196 -258 196 -182Q196 -139 232 -103T327 -66Q384 -66 420 -101T456 -197Q456 -315 371 -379T155 -444Z"  />
<glyph unicode="&#x237;" horiz-adv-x="596" d="M-86 -362Q-20 -358 33 -275T118 -65T223 400T297 803Q297 855 280 875T203 895Q150 895 80 872L94 938Q267 1010 342 1010Q498 1010 498 864Q498 838 448 588T353 144T255 -147T126 -312T-25 -412T-174 -444Q-344 -444 -344 -326Q-344 -282 -317 -250T-244 -217Q-172 -217 -116 -312Q-101 -338 -86 -362Z"  />
<glyph unicode="&#x2C6;" horiz-adv-x="1024" d="M961 1118L735 1391L406 1118L358 1151L662 1497Q687 1526 703 1534T760 1542Q813 1542 838 1501L1010 1151L961 1118Z"  />
<glyph unicode="&#x2C7;" horiz-adv-x="1024" d="M733 1163Q708 1135 693 1127T637 1118Q575 1118 559 1159L387 1509L436 1542L659 1270L989 1542L1036 1509L733 1163Z"  />
<glyph unicode="&#x2C9;" horiz-adv-x="1024" d="M1040 1296H354L383 1419H1069L1040 1296Z"  />
<glyph unicode="&#x2D8;" horiz-adv-x="1024" d="M1024 1495Q904 1126 647 1126Q533 1126 466 1201T399 1495L451 1507Q466 1378 518 1328T670 1278Q766 1278 833 1325T967 1507L1024 1495Z"  />
<glyph unicode="&#x2D9;" horiz-adv-x="1024" d="M711 1247Q659 1247 622 1286T584 1378Q584 1433 621 1473T711 1513Q765 1513 802 1476T840 1386Q840 1330 803 1289T711 1247Z"  />
<glyph unicode="&#x2DA;" horiz-adv-x="1174" d="M674 1114Q569 1114 510 1163T451 1296Q451 1408 537 1483T750 1559Q851 1559 912 1507T973 1372Q973 1265 889 1190T674 1114ZM739 1499Q668 1499 622 1440T575 1298Q575 1174 684 1174Q758 1174 802 1232T846 1372Q846 1499 739 1499Z"  />
<glyph unicode="&#x2DB;" horiz-adv-x="1024" d="M651 -444H537Q299 -444 299 -287Q299 -110 590 39H651Q461 -93 461 -256Q461 -373 664 -373L651 -444Z"  />
<glyph unicode="&#x2DC;" horiz-adv-x="1024" d="M1096 1473Q1068 1372 998 1301T842 1229Q760 1229 668 1280Q575 1331 530 1331Q489 1331 464 1310T389 1196L332 1221Q368 1326 435 1395T582 1464Q658 1464 752 1413Q846 1362 881 1362Q931 1362 963 1379T1034 1495L1096 1473Z"  />
<glyph unicode="&#x2DD;" horiz-adv-x="1024" d="M733 1110L700 1139Q830 1315 911 1446Q970 1538 1030 1538Q1064 1538 1086 1516T1108 1466Q1108 1413 1075 1383T733 1110ZM381 1110L344 1139Q456 1298 543 1446Q595 1538 659 1538Q691 1538 712 1516T733 1466Q733 1419 708 1388T381 1110Z"  />
<glyph unicode="&#x300;" horiz-adv-x="1024" d="M944 1546L909 1507Q797 1567 710 1610Q609 1660 553 1691T496 1778Q496 1817 523 1842T592 1868Q620 1868 652 1844T944 1546Z"  />
<glyph unicode="&#x301;" horiz-adv-x="1024" d="M475 1507L449 1546Q540 1623 731 1808Q788 1868 854 1868Q891 1868 914 1848T938 1796Q938 1718 838 1674T475 1507Z"  />
<glyph unicode="&#x302;" horiz-adv-x="1024" d="M1024 1538L975 1507L739 1718L420 1507L373 1538L664 1823Q710 1868 764 1868Q821 1868 844 1827L1024 1538Z"  />
<glyph unicode="&#x306;" horiz-adv-x="1024" d="M1067 1851Q950 1530 688 1530Q430 1530 430 1827V1851L485 1868Q502 1765 553 1720T715 1675Q836 1675 900 1727T1012 1868L1067 1851Z"  />
<glyph unicode="&#x308;" horiz-adv-x="1024" d="M954 1608Q905 1608 871 1643T836 1731Q836 1782 870 1817T954 1853Q1004 1853 1037 1818T1071 1731Q1071 1679 1038 1644T954 1608ZM504 1608Q455 1608 420 1643T385 1731Q385 1782 420 1817T504 1853Q553 1853 588 1818T623 1731Q623 1679 588 1644T504 1608Z"  />
<glyph unicode="&#x30B;" horiz-adv-x="1024" d="M436 1507L412 1542L669 1804Q730 1868 776 1868Q854 1868 854 1792Q854 1722 760 1677Q588 1595 436 1507ZM821 1507L797 1542L1071 1816Q1123 1868 1165 1868Q1241 1868 1241 1792Q1241 1721 1149 1677Q897 1556 821 1507Z"  />
<glyph unicode="&#x30C;" horiz-adv-x="1024" d="M1067 1837L778 1552Q743 1517 727 1512T678 1507Q627 1507 598 1548L418 1837L467 1870L700 1657L1022 1870L1067 1837Z"  />
<glyph unicode="&#x326;" horiz-adv-x="1024" d="M340 -444L348 -387Q514 -380 545 -258H492Q381 -258 381 -182Q381 -139 417 -103T512 -66Q569 -66 605 -101T641 -197Q641 -315 556 -379T340 -444Z"  />
<glyph unicode="&#x37E;" horiz-adv-x="786" d="M475 717Q419 717 379 756T338 854Q338 910 378 949T475 989Q531 989 571 950T612 854Q612 795 572 756T475 717ZM92 -354L61 -287Q293 -163 344 2H297Q174 2 174 113Q174 169 216 210T324 252Q463 252 463 98Q463 -164 92 -354Z"  />
<glyph unicode="&#x394;" horiz-adv-x="1368" d="M1233 0H-102L-90 49L877 1440H954L1245 49L1233 0ZM795 1169L106 166H1001L795 1169Z"  />
<glyph unicode="&#x3A9;" horiz-adv-x="1595" d="M1378 0H795L811 68Q1136 407 1212 588T1288 979Q1288 1164 1205 1266T961 1368Q709 1368 572 1141T434 592Q434 350 586 68L567 0H27L-23 389H43Q92 174 207 174H430L438 213Q289 414 248 520T207 748Q207 1032 428 1242T975 1452Q1224 1452 1376 1317T1528 981Q1528 788 1434 627T1042 213L1032 174H1249Q1365 174 1509 387L1567 367L1378 0Z"  />
<glyph unicode="&#x3BC;" horiz-adv-x="1180" d="M1110 51Q947 -16 868 -16Q795 -16 752 26T709 139H702Q527 -20 358 -20Q230 -20 180 70H174Q150 -35 150 -197Q150 -354 119 -404T23 -455Q-68 -455 -68 -356Q-68 -326 4 -140Q21 -95 33 -53L52 8Q75 82 86 135L283 981L457 993L469 979L319 332Q307 280 307 244Q307 92 455 92Q586 92 725 231L899 981L1073 993L1085 979L936 336Q909 219 909 195Q909 138 934 117T1016 96Q1070 96 1124 115L1110 51Z"  />
<glyph unicode="&#x3C0;" horiz-adv-x="1237" d="M1266 862H1040L920 336Q893 218 893 195Q893 138 918 117T999 96Q1046 96 1110 117L1094 51Q925 -16 854 -16Q692 -16 692 127Q692 170 711 242L854 862H588Q495 410 351 196T84 -18Q-23 -18 -23 88Q-23 133 8 168T88 203Q142 203 215 164Q317 285 391 488T477 862H430Q269 862 205 662H141Q165 792 190 842T284 937T438 981H1294L1266 862Z"  />
<glyph unicode="&#x2013;" horiz-adv-x="1317" d="M1217 500H104L133 621H1245L1217 500Z"  />
<glyph unicode="&#x2014;" horiz-adv-x="1755" d="M1655 500H104L133 621H1683L1655 500Z"  />
<glyph unicode="&#x2018;" horiz-adv-x="399" d="M541 1464Q322 1356 291 1221H334Q388 1221 419 1193T451 1120Q451 1068 412 1027T313 985Q180 985 180 1122Q180 1362 512 1528L541 1464Z"  />
<glyph unicode="&#x2019;" horiz-adv-x="399" d="M193 987L162 1051Q380 1158 414 1294H371Q252 1294 252 1395Q252 1447 290 1488T389 1530Q522 1530 522 1391Q522 1150 193 987Z"  />
<glyph unicode="&#x201A;" horiz-adv-x="399" d="M-58 -304L-89 -240Q129 -133 163 3H120Q1 3 1 104Q1 156 39 197T138 239Q271 239 271 100Q271 -141 -58 -304Z"  />
<glyph unicode="&#x201C;" horiz-adv-x="791" d="M922 1464Q705 1358 670 1221H713Q831 1221 831 1120Q831 1067 792 1026T692 985Q559 985 559 1122Q559 1362 891 1528L922 1464ZM551 1464Q334 1358 299 1221H342Q397 1221 429 1193T461 1120Q461 1068 423 1027T324 985Q190 985 190 1122Q190 1360 520 1528L551 1464Z"  />
<glyph unicode="&#x201D;" horiz-adv-x="791" d="M571 987L543 1051Q762 1159 793 1294H750Q633 1294 633 1395Q633 1447 671 1488T770 1530Q903 1530 903 1391Q903 1149 571 987ZM203 987L172 1051Q390 1158 424 1294H381Q262 1294 262 1395Q262 1447 300 1488T399 1530Q532 1530 532 1391Q532 1150 203 987Z"  />
<glyph unicode="&#x201E;" horiz-adv-x="791" d="M320 -304L292 -240Q511 -132 542 3H499Q382 3 382 104Q382 156 420 197T519 239Q652 239 652 100Q652 -142 320 -304ZM-48 -304L-79 -240Q139 -133 173 3H130Q11 3 11 104Q11 156 49 197T148 239Q281 239 281 100Q281 -141 -48 -304Z"  />
<glyph unicode="&#x2020;" horiz-adv-x="967" d="M627 1047L548 559Q506 297 498 278T473 247T432 236Q362 236 362 307Q362 328 420 518L575 1044Q501 1038 339 1003Q314 997 299 997Q225 997 225 1067Q225 1139 299 1139Q315 1139 339 1133Q493 1095 584 1085Q590 1120 600 1267Q609 1393 623 1423T684 1454Q758 1454 758 1386Q758 1361 719 1279Q662 1161 637 1087Q719 1095 873 1133Q897 1139 911 1139Q987 1139 987 1067Q987 997 911 997Q896 997 868 1004Q697 1042 627 1047Z"  />
<glyph unicode="&#x2021;" horiz-adv-x="967" d="M627 1047Q622 1019 621 995Q613 875 608 848L600 815Q594 791 565 718Q537 649 528 618Q587 623 765 663Q790 668 805 668Q879 668 879 598Q879 526 805 526Q790 526 766 532Q611 571 520 580Q512 528 505 398Q498 273 485 241T422 209Q348 209 348 279Q348 303 387 387Q442 504 467 578Q377 568 291 547Q207 526 193 526Q117 526 117 598Q117 668 193 668Q207 668 236 662Q404 623 477 618Q484 662 486 718Q488 776 496 815L504 848Q514 889 538 946Q565 1009 575 1044Q501 1038 339 1003Q314 997 299 997Q225 997 225 1067Q225 1139 299 1139Q315 1139 339 1133Q493 1095 584 1085Q590 1120 600 1267Q609 1393 623 1423T684 1454Q758 1454 758 1386Q758 1361 719 1279Q662 1161 637 1087Q719 1095 873 1133Q897 1139 911 1139Q987 1139 987 1067Q987 997 911 997Q896 997 868 1004Q697 1042 627 1047Z"  />
<glyph unicode="&#x2022;" horiz-adv-x="805" d="M412 336Q302 336 225 413T147 598Q147 706 224 784T412 862Q521 862 598 784T676 598Q676 491 598 414T412 336Z"  />
<glyph unicode="&#x2026;" horiz-adv-x="1653" d="M1366 -20Q1311 -20 1273 18T1235 109Q1235 161 1273 200T1366 240Q1420 240 1458 201T1497 109Q1497 57 1459 19T1366 -20ZM815 -20Q760 -20 722 18T684 109Q684 161 722 200T815 240Q869 240 907 201T946 109Q946 57 908 19T815 -20ZM264 -20Q210 -20 172 18T133 109Q133 162 172 201T264 240Q318 240 356 201T395 109Q395 57 357 19T264 -20Z"  />
<glyph unicode="&#x2030;" horiz-adv-x="2515" d="M465 713Q331 713 259 787T186 991Q186 1176 304 1314T606 1452Q737 1452 811 1377T885 1171Q885 977 765 845T465 713ZM594 1386Q487 1386 420 1266T352 967Q352 780 479 780Q582 780 651 904T721 1196Q721 1386 594 1386ZM217 0H74L1530 1423H1675L217 0ZM1970 -31Q1838 -31 1765 43T1692 248Q1692 435 1810 572T2111 709Q2242 709 2316 634T2390 428Q2390 234 2271 102T1970 -31ZM2097 641Q1992 641 1925 519T1858 221Q1858 37 1985 37Q2086 37 2155 160T2224 453Q2224 641 2097 641ZM1141 -31Q1008 -31 934 43T860 248Q860 434 980 571T1282 709Q1414 709 1486 634T1559 428Q1559 235 1441 102T1141 -31ZM1268 641Q1161 641 1094 519T1026 221Q1026 37 1155 37Q1256 37 1325 161T1395 453Q1395 641 1268 641Z"  />
<glyph unicode="&#x2039;" horiz-adv-x="850" d="M377 522L567 154L510 121L207 453Q180 483 180 510Q180 559 226 593L698 938L737 889L377 522Z"  />
<glyph unicode="&#x203A;" horiz-adv-x="850" d="M158 119L119 168L479 535L289 903L346 936L649 604Q676 574 676 547Q676 498 631 465L158 119Z"  />
<glyph unicode="&#x2044;" horiz-adv-x="295" d="M-264 0H-399L645 1419H782L-264 0Z"  />
<glyph unicode="&#x2074;" horiz-adv-x="1024" d="M958 809L934 705H774L721 469H555L608 705H113L141 827L829 1450H946L799 809H958ZM735 1257L244 809H633L735 1257Z"  />
<glyph unicode="&#x20AC;" horiz-adv-x="1315" d="M1427 1419L1319 913H1237V952Q1237 1370 920 1370Q750 1370 613 1237T410 897H840L780 801H381Q354 697 350 627H676L616 530H346Q353 309 451 193T723 76Q863 76 987 159T1194 395L1266 358Q1043 -33 631 -33Q397 -33 254 124T111 530H-4L53 627H115Q131 745 147 801H25L84 897H182Q298 1158 495 1305T920 1452Q1146 1452 1290 1352L1348 1419H1427Z"  />
<glyph unicode="&#x2113;" horiz-adv-x="662" d="M322 700V213Q322 78 406 78Q485 78 559 154L596 98Q475 -27 338 -27Q248 -27 192 33T135 201V539L72 481L0 559L135 678V1237Q135 1386 212 1467T397 1548Q608 1548 608 1255Q608 961 322 700ZM322 842Q498 1020 498 1241Q498 1444 408 1444Q322 1444 322 1278V842Z"  />
<glyph unicode="&#x2122;" horiz-adv-x="1929" d="M1665 733V784Q1778 784 1778 836V1286H1763L1520 756H1487L1249 1296H1235V932Q1235 872 1243 841T1295 797T1362 784V733H1047V782Q1135 793 1153 817T1171 928V1276Q1171 1361 1053 1368V1419H1331L1542 946L1718 1333Q1731 1361 1743 1419H2011V1368Q1933 1361 1920 1353T1907 1319V836Q1907 784 2011 784V733H1665ZM883 1221Q866 1271 838 1311T789 1358T705 1364H655V840Q655 784 768 784V733H416V784Q472 784 499 794T526 834V1364H477Q401 1364 383 1354T340 1306T299 1221H252V1419H932V1221H883Z"  />
<glyph unicode="&#x2126;" horiz-adv-x="1595" d="M1364 0H795L811 68Q1137 407 1215 584T1294 979Q1294 1160 1209 1264T961 1368Q709 1368 572 1141T434 592Q434 350 586 68L567 0H10L-23 385H43Q92 174 207 174H430L438 213Q289 414 248 520T207 748Q207 1032 428 1242T975 1452Q1225 1452 1379 1317T1534 981Q1534 791 1441 631T1042 213L1032 174H1249Q1365 174 1509 387L1567 367L1364 0Z"  />
<glyph unicode="&#x212E;" horiz-adv-x="1262" d="M1194 279Q1120 135 989 52T700 -31Q427 -31 276 143T125 600Q125 853 278 1035T674 1217Q911 1217 1037 1082T1163 709V629H348Q348 377 453 239T758 100Q876 100 954 149T1110 330L1194 279ZM944 725Q944 1130 672 1130Q537 1130 447 1023T348 725H944Z"  />
<glyph unicode="&#x2202;" horiz-adv-x="1180" d="M899 731Q909 808 909 920Q909 1376 637 1376Q546 1376 483 1329Q485 1306 489 1276Q492 1245 492 1221Q492 1102 379 1102Q330 1102 301 1132T272 1210Q272 1297 374 1376T639 1456Q863 1456 986 1304T1110 897Q1110 534 933 251T500 -33Q320 -33 217 80T113 385Q113 595 255 754T573 913Q805 913 899 731ZM639 797Q508 797 408 654T307 324Q307 47 500 47Q602 47 687 146T820 391T868 569Q868 653 811 725T639 797Z"  />
<glyph unicode="&#x2206;" horiz-adv-x="1368" d="M1227 0H-106L-94 49L870 1440H950L1239 49L1227 0ZM788 1167L104 166H995L788 1167Z"  />
<glyph unicode="&#x220F;" horiz-adv-x="1708" d="M1446 1329V-213Q1446 -342 1632 -342V-414H1042V-342Q1156 -342 1194 -317T1233 -225V1329H547V-213Q547 -342 731 -342V-414H143V-342Q253 -342 293 -316T334 -225V1329H133V1419H1651V1329H1446Z"  />
<glyph unicode="&#x2211;" horiz-adv-x="1444" d="M1303 -414H55V-365L752 473L68 1374V1419H1257L1300 1018H1231Q1197 1107 1125 1199T998 1315T782 1339H348L928 580V553L268 -236H1067Q1230 -236 1354 45L1419 25L1303 -414Z"  />
<glyph unicode="&#x2212;" horiz-adv-x="1317" d="M174 498V623H1194V498H174Z"  />
<glyph unicode="&#x2215;" horiz-adv-x="295" d="M-264 0H-399L645 1419H782L-264 0Z"  />
<glyph unicode="&#x2219;" horiz-adv-x="571" d="M297 424Q240 424 200 462T160 559Q160 615 199 655T297 696Q355 696 393 655T432 559Q432 502 393 463T297 424Z"  />
<glyph unicode="&#x221A;" horiz-adv-x="1370" d="M639 -127H571L315 813H125L137 903H492L694 178L1532 1702H1657L639 -127Z"  />
<glyph unicode="&#x221E;" horiz-adv-x="1468" d="M748 387Q640 147 438 147Q290 147 195 262T100 563Q100 739 200 860T440 981Q636 981 770 739Q879 979 1079 979Q1228 979 1322 865T1417 563Q1417 390 1318 269T1077 147Q883 147 748 387ZM805 674Q881 486 950 406T1118 326Q1215 326 1273 391T1331 561Q1331 672 1266 738T1090 805Q881 805 805 674ZM713 453Q634 643 566 723T399 803Q304 803 245 738T186 567Q186 456 252 389T428 322Q634 322 713 453Z"  />
<glyph unicode="&#x222B;" horiz-adv-x="1024" d="M813 1473Q794 1477 780 1477Q629 1477 629 1087V150Q629 -202 510 -323T264 -444Q164 -444 105 -395T45 -281Q45 -188 137 -188Q256 -188 258 -367Q272 -371 278 -371Q383 -371 413 -262T444 23V954Q444 1314 564 1431T809 1548Q912 1548 970 1499T1028 1386Q1028 1294 936 1294Q815 1294 813 1473Z"  />
<glyph unicode="&#x2248;" horiz-adv-x="1317" d="M1192 909Q1146 790 1056 711T862 631Q764 631 631 692Q497 752 438 752Q381 752 341 718T252 586L176 616Q221 733 311 812T504 891Q608 891 738 830Q867 768 928 768Q980 768 1020 798T1116 940L1192 909ZM1192 526Q1145 406 1055 327T862 248Q764 248 631 309Q497 369 438 369Q381 369 341 335T252 203L176 233Q220 350 310 429T504 508Q604 508 738 448Q871 387 928 387Q982 387 1021 418T1116 557L1192 526Z"  />
<glyph unicode="&#x2260;" horiz-adv-x="1317" d="M672 311L582 0H465L555 311H178V436H592L662 682H178V809H696L786 1118H903L813 809H1188V682H776L707 436H1188V311H672Z"  />
<glyph unicode="&#x2264;" horiz-adv-x="1317" d="M207 592V707L1161 1098V961L387 649L1161 340V201L207 592ZM207 0V125H1161V0H207Z"  />
<glyph unicode="&#x2265;" horiz-adv-x="1317" d="M207 201V340L981 649L207 961V1098L1161 707V592L207 201ZM207 0V125H1161V0H207Z"  />
<glyph unicode="&#x25CA;" horiz-adv-x="1151" d="M600 0L90 573L600 1149L1110 573L600 0ZM600 979L248 573L600 170L952 573L600 979Z"  />
<glyph unicode="&#xFB01;" horiz-adv-x="1194" d="M922 1470H891Q621 1470 535 1069L514 977H840L1092 993L1104 979L950 334Q926 233 926 195Q926 138 951 117T1032 96Q1088 96 1143 113L1126 49Q972 -16 887 -16Q725 -16 725 127Q725 166 743 238L874 795Q881 825 881 840Q881 855 866 887H496L319 59Q275 -147 125 -295T-190 -444Q-360 -444 -360 -326Q-360 -279 -333 -248T-260 -217Q-186 -217 -131 -312Q-117 -338 -102 -362Q45 -351 125 23L307 887H113L133 977H328L334 1010Q376 1241 546 1394T922 1548Q1176 1548 1176 1397Q1176 1355 1149 1322T1081 1288Q974 1288 941 1406Q932 1438 922 1470Z"  />
<glyph unicode="&#xFB02;" horiz-adv-x="1235" d="M971 330Q946 222 946 190Q946 134 972 113T1055 92Q1122 92 1174 109L1157 45Q1001 -20 909 -20Q832 -20 790 19T748 123Q748 169 764 233L1018 1333Q1026 1368 1026 1380Q1026 1421 993 1449T899 1477Q619 1477 528 1047L512 977H766L743 887H496L319 59Q272 -160 123 -302T-190 -444Q-360 -444 -360 -326Q-360 -279 -333 -248T-260 -217Q-186 -217 -131 -312Q-117 -338 -102 -362Q45 -351 125 23L307 887H113L133 977H326L332 1006Q386 1265 558 1406T926 1548Q1068 1548 1149 1509L1239 1548L1249 1534L971 330Z"  />

</font>
</defs>
</svg>
