<svg xmlns="http://www.w3.org/2000/svg">
<defs>
<font horiz-adv-x="530" id="d0697971-6f58-4597-942e-8beabd1adc87">
<font-face font-family="" panose-1="2 11 6 4 2 2 2 9 2 4" ascent="957" descent="-214" units-per-em="1000" alphabetic="0">
</font-face>
<missing-glyph horiz-adv-x="278" />

<glyph unicode="&#xA;" />
<glyph unicode="&#xD;" />
<glyph unicode=" " horiz-adv-x="278" />
<glyph unicode="!" horiz-adv-x="259" d="M205 491L115 183H69L112 491L159 714H252L205 491ZM24 111H135L111 0H0L24 111Z"  />
<glyph unicode="&quot;" horiz-adv-x="426" d="M286 714H354V456H286V714ZM146 714H214V456H146V714Z"  />
<glyph unicode="#" horiz-adv-x="556" d="M231 424L210 274H332L353 424H231ZM131 206H34L43 274H140L161 424H60L69 492H171L200 697H269L240 492H362L391 697H460L431 492H522L513 424H422L401 274H494L485 206H392L363 0H294L323 206H200L171 0H102L131 206Z"  />
<glyph unicode="$" horiz-adv-x="556" d="M172 -12Q77 4 31 67T-10 234H80Q72 89 188 65L242 334Q206 345 174 359T118 394T79 445T65 519Q65 570 86 611T144 681T226 722T322 731L335 794H388L374 725Q410 715 440 697T493 651T527 586T536 503H446Q448 567 425 602T359 651L310 405L364 386Q439 365 477 320T516 206Q516 146 489 101T420 28T325 -12T224 -17L207 -97H154L172 -12ZM239 58Q258 53 290 58T352 80T404 125T426 197Q426 232 415 253T386 286T343 306T293 322L239 58ZM307 656Q284 656 258 650T209 630T171 591T155 529Q155 488 182 462T246 424L259 418L307 656Z"  />
<glyph unicode="%" horiz-adv-x="926" d="M79 454Q79 494 90 539T123 622T181 684T264 709Q336 709 373 673T410 564Q410 521 400 476T367 394T309 333T223 309Q156 309 118 347T79 454ZM581 137Q581 91 598 67T660 43Q693 43 715 63T750 114T770 180T776 248Q776 333 703 333Q670 333 647 312T610 261T588 196T581 137ZM513 133Q513 173 524 218T557 301T615 363T698 388Q770 388 807 352T844 243Q844 200 834 155T801 73T743 12T657 -12Q590 -12 552 26T513 133ZM644 725H708L273 -28H209L644 725ZM147 458Q147 412 164 388T226 364Q259 364 281 384T316 435T336 501T342 569Q342 654 269 654Q236 654 213 633T176 582T154 517T147 458Z"  />
<glyph unicode="&amp;" horiz-adv-x="630" d="M246 551Q246 517 260 490T291 434Q310 445 332 458T373 487T404 522T417 565Q417 599 394 619T338 639Q299 639 273 616T246 551ZM424 74Q383 35 333 12T220 -12Q178 -12 142 0T79 37T37 95T21 173Q21 218 39 252T85 312T149 359T220 398Q199 431 180 469T161 556Q161 592 174 621T211 670T267 702T339 714Q370 714 399 706T451 680T488 638T502 578Q502 540 486 510T444 456T387 412T326 376L438 192Q459 221 477 260T501 337H583Q567 266 542 219T480 130L565 0H468L424 74ZM257 338Q232 325 205 309T156 273T120 227T106 169Q106 145 116 126T143 92T183 71T229 63Q253 63 273 67T311 80T347 101T384 130L257 338Z"  />
<glyph unicode="&apos;" horiz-adv-x="278" d="M142 714H210V456H142V714Z"  />
<glyph unicode="(" horiz-adv-x="259" d="M116 -198Q98 -159 84 -113T58 -18T41 78T35 170Q35 255 54 330T108 473T190 605T293 731H363Q309 666 264 597T187 454T138 300T120 134Q120 49 132 -34T172 -198H116Z"  />
<glyph unicode=")" horiz-adv-x="259" d="M-117 -198Q-62 -134 -18 -65T59 78T108 232T126 398Q126 483 114 566T74 731H130Q148 690 162 644T188 550T205 454T211 362Q211 277 192 202T138 59T56 -73T-47 -198H-117Z"  />
<glyph unicode="*" horiz-adv-x="352" d="M247 601L357 612L362 564L255 550L304 450L255 427L208 530L130 443L93 480L170 564L75 612L100 658L196 609L218 714H272L247 601Z"  />
<glyph unicode="+" horiz-adv-x="600" d="M334 287H552V219H334V0H266V219H48V287H266V506H334V287Z"  />
<glyph unicode="&#x2c;" horiz-adv-x="278" d="M39 111H150Q140 69 133 25T110 -55T65 -117T-16 -147L-6 -99Q14 -96 27 -87T48 -64T61 -34T71 0H15L39 111Z"  />
<glyph unicode="-" horiz-adv-x="389" d="M42 318H332L316 238H26L42 318Z"  />
<glyph unicode="." horiz-adv-x="278" d="M39 111H150L126 0H15L39 111Z"  />
<glyph unicode="/" horiz-adv-x="333" d="M278 731H351L55 -17H-18L278 731Z"  />
<glyph unicode="0" horiz-adv-x="556" d="M115 249Q115 164 141 114T230 63Q269 63 300 85T354 141T392 216T417 297T431 369T436 417Q436 447 436 484T428 555T397 611T328 634Q290 634 259 613T205 557T164 479T136 393T120 312T115 249ZM25 263Q25 303 32 351T56 449T97 546T156 629T234 687T335 709Q428 709 477 646T526 441Q526 409 520 363T499 266T462 166T404 77T325 13T221 -12Q165 -12 128 9T67 68T35 155T25 263Z"  />
<glyph unicode="1" horiz-adv-x="556" d="M282 0H192L307 539Q259 528 216 524T124 519L138 587Q170 587 204 594T269 617T325 656T367 709H433L282 0Z"  />
<glyph unicode="2" horiz-adv-x="556" d="M68 468Q74 523 93 567T144 643T221 692T323 709Q366 709 402 696T465 659T507 599T522 520Q522 477 507 442T468 377T411 323T344 277T274 236T209 197Q192 186 175 173T141 145T113 112T93 75H462L446 0H-6Q-2 54 15 94T60 167T121 224T192 271T267 316T340 365Q359 380 376 395T405 428T425 467T432 515Q432 571 400 602T313 634Q277 634 249 621T202 585T171 532T158 468H68Z"  />
<glyph unicode="3" horiz-adv-x="556" d="M229 404Q263 402 297 405T360 422T407 463T425 536Q425 567 415 586T387 616T349 630T305 634Q245 634 208 599T161 490H71Q77 534 94 573T140 643T211 691T310 709Q404 709 459 666T515 532Q515 501 504 475T476 427T435 392T388 370Q440 347 460 309T480 223Q480 186 465 145T418 69T338 11T224 -12Q119 -12 59 44T1 219H91Q90 190 95 162T115 112T157 77T226 63Q262 63 292 74T343 105T377 154T390 219Q390 259 375 282T334 318T278 333T214 336L229 404Z"  />
<glyph unicode="4" horiz-adv-x="556" d="M307 166H-4L13 250L433 709H505L407 241H501L486 166H392L356 0H271L307 166ZM94 241H322L389 562H387L94 241Z"  />
<glyph unicode="5" horiz-adv-x="556" d="M508 622H217L161 430L163 428Q189 448 222 457T288 467Q336 467 373 451T435 406T474 338T487 253Q487 197 468 145T407 55Q366 19 321 4T220 -12Q123 -12 65 40T7 190H97Q97 128 128 96T225 63Q267 63 299 77T352 117T385 177T397 249Q397 318 361 355T256 392Q218 392 183 374T130 323H54L164 697H523L508 622Z"  />
<glyph unicode="6" horiz-adv-x="556" d="M455 525Q454 579 428 606T345 634Q295 634 261 610T203 549T164 468T138 385H140Q152 403 169 416T207 439T250 452T295 456Q339 456 376 440T439 396T480 329T495 248Q495 193 478 146T427 63T347 8T242 -12Q186 -12 146 6T80 56T42 132T29 227Q29 262 33 300T45 377T64 451T89 518Q127 607 190 658T359 709Q447 709 495 660T545 525H455ZM405 244Q405 305 372 343T275 381Q237 381 208 367T159 329T129 274T119 206Q119 143 151 103T250 63Q289 63 318 78T366 118T395 176T405 244Z"  />
<glyph unicode="7" horiz-adv-x="556" d="M564 626Q503 569 447 494T343 335T257 165T194 0H97Q152 174 247 330T471 622H102L119 697H576L564 626Z"  />
<glyph unicode="8" horiz-adv-x="556" d="M104 519Q104 565 121 600T168 660T237 696T320 709Q359 709 395 697T458 663T502 608T519 533Q519 474 484 431T392 374V372Q444 350 468 305T492 205Q492 156 473 116T420 48T344 4T255 -12Q208 -12 166 0T92 37T41 100T22 189Q22 269 68 320T192 386V388Q154 405 129 441T104 519ZM249 63Q316 63 359 101T402 208Q402 265 368 300T271 336Q201 336 157 299T112 190Q112 126 150 95T249 63ZM194 516Q194 460 228 436T314 411Q365 411 397 443T429 526Q429 580 399 607T316 634Q262 634 228 602T194 516Z"  />
<glyph unicode="9" horiz-adv-x="556" d="M94 169Q94 118 119 91T197 63Q248 63 283 86T342 146T383 225T411 307L409 309Q384 272 341 256T253 239Q209 239 172 255T109 300T69 366T54 447Q54 501 71 548T121 632T199 688T301 709Q357 709 398 692T466 644T506 568T519 471Q519 401 504 325T460 184Q440 139 417 103T362 41T291 2T198 -12Q154 -12 118 -1T56 32T17 89T4 169H94ZM274 314Q312 314 341 328T389 366T419 422T429 489Q429 555 395 594T292 634Q255 634 228 618T182 575T154 516T144 451Q144 390 177 352T274 314Z"  />
<glyph unicode=":" horiz-adv-x="278" d="M211 406H99L122 517H234L211 406ZM37 111H150L127 0H15L37 111Z"  />
<glyph unicode=";" horiz-adv-x="278" d="M210 406H99L123 517H234L210 406ZM39 111H150Q140 69 133 25T110 -55T65 -117T-16 -147L-6 -99Q14 -96 27 -87T48 -64T61 -34T71 0H15L39 111Z"  />
<glyph unicode="&lt;" horiz-adv-x="600" d="M554 446L129 253L554 60V-8L46 222V284L554 514V446Z"  />
<glyph unicode="=" horiz-adv-x="600" d="M48 186H552V118H48V186ZM552 320H48V388H552V320Z"  />
<glyph unicode="&gt;" horiz-adv-x="600" d="M46 60L471 253L46 446V514L554 284V222L46 -8V60Z"  />
<glyph unicode="?" horiz-adv-x="556" d="M169 111H280L256 0H145L169 111ZM86 488Q89 538 108 581T159 655T234 704T328 722Q365 722 402 712T469 682T516 631T535 557Q535 505 519 470T477 408T422 360T363 317T313 269T283 205L279 183H196Q202 218 212 250T246 312Q264 336 289 357T350 402Q368 414 385 428T415 460T437 498T445 542Q445 596 413 621T330 647Q294 647 266 635T218 601T186 550T171 488H86Z"  />
<glyph unicode="@" horiz-adv-x="800" d="M534 270Q530 257 527 244T523 219Q523 205 528 197T547 188Q570 188 594 209T639 263T672 337T685 418Q685 477 663 525T602 606T515 658T414 676Q350 676 295 651T198 581T134 479T110 355Q110 288 134 230T201 130T300 63T419 38Q455 38 490 46T557 71T618 109T667 159H730Q706 118 672 85T598 30T511 -5T417 -17Q338 -17 270 12T151 92T71 212T42 360Q42 437 71 504T151 622T269 702T413 731Q482 731 544 708T652 645T726 547T753 423Q753 358 730 305T671 213T595 154T519 133Q493 133 475 149T455 198H452Q429 172 397 152T328 131Q296 131 270 143T225 177T196 227T185 289Q185 341 202 392T249 483T323 548T420 573Q455 573 485 555T532 491L555 554H618L534 270ZM420 505Q385 505 356 485T305 433T272 366T260 296Q260 254 284 227T346 199Q379 199 407 220T456 274T489 344T501 412Q501 430 494 447T476 476T451 497T420 505Z"  />
<glyph unicode="A" horiz-adv-x="667" d="M375 714H479L608 0H510L477 215H176L51 0H-55L375 714ZM219 295H465L412 630H410L219 295Z"  />
<glyph unicode="B" horiz-adv-x="685" d="M183 407H395Q470 407 508 441T547 543Q547 574 534 592T499 620T454 631T407 634H231L183 407ZM156 714H443Q548 714 595 669T642 543Q642 513 633 485T606 433T563 393T506 371V369Q555 355 584 317T613 221Q613 170 594 129T540 60T459 16T360 0H7L156 714ZM115 80H345Q363 80 392 83T449 101T497 144T518 221Q518 255 506 276T474 308T427 323T371 327H167L115 80Z"  />
<glyph unicode="C" horiz-adv-x="722" d="M660 241Q633 121 555 52T344 -17Q271 -17 214 4T118 65T59 164T38 296Q38 383 65 461T142 600T265 695T430 731Q488 731 537 716T623 670T681 593T702 484H607Q607 568 558 609T430 651Q355 651 300 620T207 538T152 424T133 296Q133 244 146 201T185 128T250 80T344 63Q432 63 487 110T565 241H660Z"  />
<glyph unicode="D" horiz-adv-x="704" d="M117 80H282Q358 80 414 110T508 190T564 303T583 431Q583 470 575 507T544 572T484 617T386 634H234L117 80ZM158 714H408Q541 714 609 641T678 441Q678 340 649 259T568 120T443 31T281 0H7L158 714Z"  />
<glyph unicode="E" horiz-adv-x="611" d="M158 714H650L634 634H237L189 407H559L543 327H172L120 80H522L504 0H7L158 714Z"  />
<glyph unicode="F" horiz-adv-x="574" d="M156 714H626L609 634H234L187 407H517L500 327H170L102 0H7L156 714Z"  />
<glyph unicode="G" horiz-adv-x="759" d="M557 71Q516 26 459 5T344 -17Q271 -17 214 4T118 65T59 164T38 296Q38 383 65 461T142 600T265 695T430 731Q489 731 541 717T633 674T694 599T717 492H622Q622 533 607 563T565 612T504 641T430 651Q355 651 300 620T207 538T152 424T133 296Q133 244 146 201T185 128T250 80T344 63Q401 63 443 80T517 127T568 201T602 296H374L390 376H701L623 0H563L557 71Z"  />
<glyph unicode="H" horiz-adv-x="722" d="M157 714H253L188 407H562L626 714H721L571 0H476L545 327H171L102 0H7L157 714Z"  />
<glyph unicode="I" horiz-adv-x="259" d="M157 714H252L102 0H7L157 714Z"  />
<glyph unicode="J" horiz-adv-x="519" d="M412 176Q402 130 386 94T344 34T281 -4T189 -17Q146 -17 110 -7T47 22T6 69T-9 135Q-9 153 -7 179T0 234H96Q92 216 90 198T86 160Q86 109 114 86T191 63Q227 63 250 77T289 115T312 167T327 225L431 714H525L412 176Z"  />
<glyph unicode="K" horiz-adv-x="667" d="M158 714H253L178 362L180 360L584 714H711L367 420L596 0H491L296 362L153 241L102 0H7L158 714Z"  />
<glyph unicode="L" horiz-adv-x="556" d="M157 714H252L120 80H497L480 0H7L157 714Z"  />
<glyph unicode="M" horiz-adv-x="870" d="M157 714H289L384 100H386L739 714H871L720 0H629L775 625H773L409 0H318L225 625H223L98 0H7L157 714Z"  />
<glyph unicode="N" horiz-adv-x="722" d="M158 714H260L515 123H517L636 714H728L577 0H475L222 587H220L99 0H7L158 714Z"  />
<glyph unicode="O" horiz-adv-x="759" d="M133 296Q133 244 146 201T185 128T250 80T344 63Q415 63 469 94T559 175T614 288T633 415Q633 464 620 507T581 582T517 632T430 651Q355 651 300 620T207 538T152 424T133 296ZM38 296Q38 383 65 461T142 600T265 695T430 731Q499 731 554 707T648 640T707 539T728 415Q728 331 702 253T626 115T505 19T344 -17Q271 -17 214 4T118 65T59 164T38 296Z"  />
<glyph unicode="P" horiz-adv-x="648" d="M181 372H396Q473 372 513 412T554 517Q554 550 545 572T519 608T482 628T437 634H236L181 372ZM156 714H437Q540 714 594 665T649 517Q649 484 636 445T592 371T508 315T376 292H164L102 0H7L156 714Z"  />
<glyph unicode="Q" horiz-adv-x="759" d="M435 203L514 126Q544 151 566 184T603 255T625 333T633 415Q633 464 620 507T581 582T517 632T430 651Q355 651 300 620T207 538T152 424T133 296Q133 244 146 201T185 128T250 80T344 63Q401 63 446 84L381 146L435 203ZM609 -74L510 22Q474 3 433 -7T344 -17Q271 -17 214 4T118 65T59 164T38 296Q38 383 65 461T142 600T265 695T430 731Q499 731 554 707T648 640T707 539T728 415Q728 312 689 220T576 66L663 -18L609 -74Z"  />
<glyph unicode="R" horiz-adv-x="685" d="M158 714H433Q478 714 520 706T596 676T648 620T668 532Q668 496 656 464T623 406T573 363T507 340V338Q530 331 545 316T569 281T580 235T580 183Q578 159 574 135T568 89T568 44T581 0H482Q475 20 474 59T484 153Q495 217 486 248T457 292T415 305Q392 305 377 305H166L102 0H7L158 714ZM183 385H397Q453 385 487 400T541 436T566 482T573 526Q573 559 561 580T530 613T485 629T433 634H236L183 385Z"  />
<glyph unicode="S" horiz-adv-x="648" d="M519 503Q520 545 509 573T475 619T423 644T355 651Q329 651 300 645T247 624T206 588T190 534Q190 508 199 490T223 458T260 435T306 419L402 393Q435 384 466 371T521 336T559 281T574 200Q574 145 549 104T483 36T394 -4T296 -17Q231 -17 178 -3T87 43T30 121T15 234H110Q108 186 121 153T159 100T220 72T300 63Q333 63 365 71T423 95T463 138T479 200Q479 227 469 246T442 279T401 302T352 318L255 344Q223 353 194 367T143 403T108 455T95 524Q95 576 118 614T177 679T260 718T355 731Q408 731 455 718T539 677T595 606T614 503H519Z"  />
<glyph unicode="T" horiz-adv-x="574" d="M635 634H395L261 0H166L300 634H60L77 714H653L635 634Z"  />
<glyph unicode="U" horiz-adv-x="722" d="M639 286Q630 244 621 207T603 149Q585 105 557 74T492 22T413 -7T325 -17Q167 -17 101 63T66 294L155 714H250L156 270Q132 166 176 115T325 63Q383 63 420 79T482 124T519 194T543 286L633 714H728L639 286Z"  />
<glyph unicode="V" horiz-adv-x="611" d="M288 0H181L79 714H176L249 93H251L590 714H691L288 0Z"  />
<glyph unicode="W" horiz-adv-x="926" d="M655 0H556L511 616H509L227 0H125L80 714H174L199 113H201L475 714H583L623 111H625L885 714H983L655 0Z"  />
<glyph unicode="X" horiz-adv-x="611" d="M266 373L94 714H196L328 432L557 714H664L370 360L551 0H453L309 302L65 0H-44L266 373Z"  />
<glyph unicode="Y" horiz-adv-x="611" d="M254 287L66 714H167L313 368L584 714H694L348 287L286 0H193L254 287Z"  />
<glyph unicode="Z" horiz-adv-x="611" d="M-21 79L515 634H106L126 714H647L630 633L90 80H546L529 0H-38L-21 79Z"  />
<glyph unicode="[" horiz-adv-x="259" d="M163 731H352L338 666H230L66 -133H174L160 -198H-29L163 731Z"  />
<glyph unicode="\" horiz-adv-x="333" d="M351 -17H278L-18 731H55L351 -17Z"  />
<glyph unicode="]" horiz-adv-x="259" d="M61 -198H-128L-114 -133H-6L158 666H50L64 731H253L61 -198Z"  />
<glyph unicode="^" horiz-adv-x="600" d="M268 697H332L550 264H480L299 624L121 264H50L268 697Z"  />
<glyph unicode="_" horiz-adv-x="500" d="M0 -75H500V-125H0V-75Z"  />
<glyph unicode="`" horiz-adv-x="222" d="M284 589H217L116 732H217L284 589Z"  />
<glyph unicode="a" horiz-adv-x="519" d="M53 361Q59 404 79 435T130 488T198 519T277 529Q314 529 348 523T409 502T450 462T466 397Q466 375 461 350T450 303L417 162Q414 146 409 126T403 88Q403 70 410 63T428 56Q434 56 441 58T455 63L442 0Q432 -5 417 -8T390 -12Q355 -12 337 7T323 61L321 63Q294 27 254 8T148 -12Q116 -12 87 -4T37 21T3 66T-10 134Q-10 190 14 222T77 271T162 294T251 304Q285 307 309 310T350 322T373 345T381 386Q381 407 371 420T346 440T313 451T277 454Q253 454 230 449T187 433T155 404T138 361H53ZM75 135Q75 99 103 81T168 63Q269 63 313 131Q334 160 341 194T358 264H356Q342 256 323 251T283 241T237 235T190 229T146 220T110 204T85 177T75 135Z"  />
<glyph unicode="b" horiz-adv-x="593" d="M146 714H231L176 453L178 451Q207 488 247 508T336 529Q388 529 426 513T489 467T526 397T539 306Q539 246 521 189T468 87T383 15T266 -12Q230 -12 200 -3T148 22T111 57T92 96H90L71 0H-5L146 714ZM454 306Q454 337 447 364T425 411T388 442T336 454Q280 454 240 429T175 364T137 279T125 192Q125 131 164 97T266 63Q312 63 347 87T406 147T442 225T454 306Z"  />
<glyph unicode="c" horiz-adv-x="537" d="M416 353Q416 401 387 427T307 454Q258 454 221 432T158 375T119 297T106 211Q106 181 112 154T134 107T173 75T234 63Q289 63 328 92T385 169H470Q447 82 386 35T234 -12Q128 -12 75 47T21 211Q21 272 39 329T94 431T184 502T307 529Q395 529 446 487T501 353H416Z"  />
<glyph unicode="d" horiz-adv-x="593" d="M455 0H375L393 74H391Q353 24 313 6T220 -12Q170 -12 133 3T69 47T30 114T17 200Q17 259 36 317T92 423T182 499T304 529Q328 529 353 525T400 510T440 482T465 438H467L522 714H606L455 0ZM102 200Q102 137 133 100T235 63Q283 63 321 88T384 151T423 234T437 320Q437 378 404 416T307 454Q256 454 218 431T154 370T115 288T102 200Z"  />
<glyph unicode="e" horiz-adv-x="537" d="M98 233Q95 210 95 188Q95 158 106 135T136 96T179 72T229 63Q285 63 322 88T378 162H463Q453 119 431 87T378 32T309 -1T229 -12Q165 -12 123 8T55 58T20 125T10 196Q10 270 31 331T89 437T174 505T276 529Q390 529 442 469T495 300Q495 280 492 262T487 233H98ZM410 308Q412 335 407 361T387 408T349 441T289 454Q251 454 222 443T172 411T135 365T110 308H410Z"  />
<glyph unicode="f" horiz-adv-x="296" d="M119 442H31L46 517H134Q144 556 152 593T177 658T221 704T301 722Q319 722 337 721T372 714L358 642Q336 647 318 647Q286 647 270 636T244 606T230 564T218 517H317L303 442H203L108 0H23L119 442Z"  />
<glyph unicode="g" horiz-adv-x="574" d="M459 75Q450 35 440 -2T419 -66Q386 -144 327 -177T184 -210Q145 -210 108 -201T43 -173T-3 -124T-22 -50H63Q65 -76 76 -92T105 -118T146 -131T193 -135Q242 -135 273 -117T325 -70T356 -3T378 73L376 75Q348 33 306 15T215 -4Q167 -4 131 12T70 56T34 124T21 210Q21 267 39 324T92 426T177 500T290 529Q318 529 345 522T394 501T432 468T454 424V422H456L472 517H552L459 75ZM106 210Q106 182 114 157T137 113T177 83T233 71Q281 71 316 95T375 156T409 236T421 319Q421 380 389 417T289 454Q244 454 210 429T153 368T118 289T106 210Z"  />
<glyph unicode="h" horiz-adv-x="556" d="M146 714H231L170 441L172 439Q204 483 253 506T356 529Q429 529 464 497T500 396Q500 379 496 352T485 295L422 0H337L403 302Q404 309 406 320T410 342T413 364T415 382Q415 419 389 436T325 454Q290 454 256 437T197 394Q174 374 161 346T140 286L80 0H-5L146 714Z"  />
<glyph unicode="i" horiz-adv-x="222" d="M208 610H122L144 714H230L208 610ZM103 517H188L80 0H-5L103 517Z"  />
<glyph unicode="j" horiz-adv-x="222" d="M208 610H122L144 714H230L208 610ZM-105 -117Q-97 -119 -89 -121T-72 -123Q-58 -123 -49 -118T-33 -102T-21 -72T-10 -26L103 517H188L58 -97Q47 -145 17 -171T-64 -198Q-78 -198 -92 -197T-120 -192L-105 -117Z"  />
<glyph unicode="k" horiz-adv-x="481" d="M146 714H230L141 294L143 292L403 517H514L289 326L417 0H322L221 275L119 184L80 0H-5L146 714Z"  />
<glyph unicode="l" horiz-adv-x="222" d="M145 714H230L80 0H-5L145 714Z"  />
<glyph unicode="m" horiz-adv-x="852" d="M105 517H184L165 440L167 438Q200 479 246 504T347 529Q396 529 431 508T477 436Q507 478 554 503T654 529Q681 529 707 523T753 503T786 467T798 413Q798 390 793 361T783 310L718 0H633L705 328Q708 340 710 356T713 384Q713 414 691 434T634 454Q616 454 598 448T562 433T530 410T504 383Q483 360 473 330T456 267L399 0H314L376 295Q383 325 387 351T392 386Q392 418 374 436T320 454Q302 454 285 449T251 434T219 413T193 388Q166 362 156 336T138 271L80 0H-5L105 517Z"  />
<glyph unicode="n" horiz-adv-x="556" d="M104 517H186L170 439H172Q204 483 253 506T356 529Q429 529 464 497T500 396Q500 379 496 352T485 295L422 0H337L403 302Q404 309 406 320T410 342T413 364T415 382Q415 419 389 436T325 454Q290 454 256 437T197 394Q174 374 161 346T140 286L80 0H-5L104 517Z"  />
<glyph unicode="o" horiz-adv-x="574" d="M17 204Q17 267 36 326T93 430T184 502T306 529Q410 529 465 474T521 315Q521 252 502 193T446 89T356 16T235 -12Q184 -12 144 4T75 49T32 117T17 204ZM102 205Q102 141 138 102T244 63Q290 63 326 87T386 147T423 227T436 308Q436 338 428 365T403 411T361 442T300 454Q251 454 214 430T152 370T115 289T102 205Z"  />
<glyph unicode="p" horiz-adv-x="593" d="M102 517H182L164 443H166Q204 493 244 511T337 529Q386 529 424 514T488 470T527 403T540 317Q540 258 521 200T465 94T375 18T253 -12Q229 -12 204 -8T157 7T117 35T92 79H90L35 -198H-49L102 517ZM455 317Q455 380 424 417T322 454Q274 454 236 429T173 366T134 283T120 197Q120 139 153 101T250 63Q301 63 339 86T403 147T442 229T455 317Z"  />
<glyph unicode="q" horiz-adv-x="593" d="M102 212Q102 182 109 155T133 107T174 75T234 63Q285 63 322 89T383 154T419 239T431 327Q431 386 396 420T298 454Q251 454 215 431T153 373T115 295T102 212ZM410 -198H324L380 66H378Q348 29 306 9T215 -12Q164 -12 127 5T66 52T29 123T17 212Q17 272 35 329T89 430T174 502T289 529Q346 529 390 509T456 435H458L475 517H561L410 -198Z"  />
<glyph unicode="r" horiz-adv-x="333" d="M103 517H183L158 406H160Q190 459 236 494T348 529Q356 529 363 530T378 529L358 438Q352 439 345 439Q339 439 333 439Q317 439 307 439T282 434Q247 425 220 403T172 350Q155 325 145 292T129 229L80 0H-5L103 517Z"  />
<glyph unicode="s" horiz-adv-x="481" d="M355 365Q356 387 348 403T325 431T290 448T248 454Q228 454 209 451T174 441T148 420T138 388Q138 370 149 357T180 333T224 313T274 293Q299 282 324 270T368 240T399 201T411 148Q411 105 392 75T343 25T275 -3T200 -12Q156 -12 118 -3T51 26T7 79T-9 163H76Q74 134 84 115T113 85T156 68T208 63Q229 63 250 67T288 80T315 105T326 142Q326 161 315 174T284 199T240 219T190 240Q164 250 140 262T96 290T65 329T53 380Q53 416 69 444T113 490T174 519T245 529Q281 529 316 521T378 493T423 442T440 365H355Z"  />
<glyph unicode="t" horiz-adv-x="315" d="M221 517H324L308 442H205L141 138Q140 129 139 121T138 104Q138 84 153 77T189 69Q202 69 214 71T238 78L223 0Q193 -6 163 -6Q139 -6 118 -2T82 11T57 37T47 78Q47 89 48 99T52 121L120 442H33L49 517H136L168 670H253L221 517Z"  />
<glyph unicode="u" horiz-adv-x="556" d="M411 0H329L345 78H343Q311 34 262 11T159 -12Q86 -12 51 20T15 121Q15 138 19 165T30 222L93 517H178L112 215Q110 208 108 197T105 175T102 153T100 135Q100 98 126 81T190 63Q225 63 256 77T311 114T351 168T375 231L435 517H520L411 0Z"  />
<glyph unicode="v" horiz-adv-x="481" d="M207 0H116L42 517H132L176 87H178L402 517H494L207 0Z"  />
<glyph unicode="w" horiz-adv-x="759" d="M495 0H405L379 402H377L192 0H102L41 517H131L163 106H165L351 517H447L472 106H474L670 517H762L495 0Z"  />
<glyph unicode="x" horiz-adv-x="481" d="M176 274L61 517H159L237 329L391 517H494L272 267L404 0H307L213 212L37 0H-66L176 274Z"  />
<glyph unicode="y" horiz-adv-x="481" d="M163 -88Q147 -113 132 -135T97 -174T53 -200T-4 -210Q-19 -210 -35 -207T-63 -197L-48 -128Q-38 -134 -24 -138T1 -142Q30 -142 48 -127T81 -86L133 0L42 517H133L193 106H195L412 517H505L163 -88Z"  />
<glyph unicode="z" horiz-adv-x="444" d="M-41 64L319 442H41L56 517H449L436 456L73 75H382L368 0H-53L-41 64Z"  />
<glyph unicode="{" horiz-adv-x="333" d="M382 671H332Q317 671 307 664T288 644T275 615T266 583L229 402Q221 367 206 343T173 302T140 278T114 268L113 265Q120 264 131 259T152 243T170 214T178 169Q178 160 176 151T172 131L135 -50Q132 -67 132 -84Q132 -107 138 -122T165 -138H215L202 -198H132Q117 -198 102 -192T74 -175T55 -147T47 -108Q47 -99 48 -89T51 -67L89 115Q91 126 92 136T93 156Q93 191 75 211T30 232L45 300Q61 300 77 308T108 332T134 369T152 418L190 600Q196 632 211 656T245 697T285 722T325 731H395L382 671Z"  />
<glyph unicode="|" horiz-adv-x="222" d="M77 786H145V-214H77V786Z"  />
<glyph unicode="}" horiz-adv-x="333" d="M-78 -138H-28Q-13 -138 -3 -131T16 -111T29 -82T38 -50L75 131Q82 166 98 190T131 231T164 255T190 265L191 268Q184 269 173 274T152 290T134 319T126 364Q126 373 128 382T132 402L169 583Q172 599 172 617Q172 640 166 655T139 671H89L102 731H172Q187 731 202 725T230 708T249 680T257 641Q257 632 256 622T253 600L215 418Q213 407 212 397T211 377Q211 341 229 321T274 300L259 232Q243 232 227 224T196 200T170 163T152 115L114 -67Q108 -99 93 -123T59 -164T19 -189T-21 -198H-91L-78 -138Z"  />
<glyph unicode="~" horiz-adv-x="600" d="M531 269Q520 253 508 238T481 210T448 191T406 183Q378 183 354 192T304 216Q280 230 252 242T189 255Q172 255 160 248T137 230T119 206T105 179L69 229Q77 245 88 260T115 288T149 307T194 315Q220 315 248 306T305 283Q333 271 360 257T407 243Q422 243 434 250T457 268T477 292T495 319L531 269Z"  />
<glyph unicode="&#xA0;" horiz-adv-x="278" />
<glyph unicode="&#xA1;" horiz-adv-x="259" d="M20 25L110 333H156L113 25L66 -198H-27L20 25ZM201 406H90L114 517H225L201 406Z"  />
<glyph unicode="&#xA2;" horiz-adv-x="556" d="M480 169Q457 82 395 35T241 -12L219 -116H180L203 -9Q117 2 74 59T31 211Q31 272 51 329T108 431T199 502T317 529L336 620H375L355 527Q427 518 469 476T511 353H426Q426 398 403 424T340 457L256 58Q307 62 342 91T395 169H480ZM116 211Q116 182 121 157T139 111T170 78T218 61L302 459Q257 456 222 433T164 374T128 297T116 211Z"  />
<glyph unicode="&#xA3;" horiz-adv-x="556" d="M-3 63Q25 85 48 105T87 148T113 194T122 247Q122 265 120 284T112 327H26L36 372H98Q90 403 83 435T75 499Q75 549 95 591T148 665T226 713T317 731Q373 731 415 712T485 660T526 581T536 485H446Q449 516 443 546T421 601T382 641T324 656Q289 656 260 644T210 609T177 556T165 489Q165 459 171 430T188 372H342L332 327H202Q207 313 209 295T212 259Q212 235 201 208T170 156T127 108T78 71V69Q100 80 132 88T190 96Q213 96 233 91T274 80Q294 73 314 66T359 58Q385 58 409 74T453 104L485 32Q472 23 455 14T420 -2T384 -13T349 -17Q322 -17 296 -10T245 7Q219 16 195 23T144 31Q111 31 83 18T26 -12L-3 63Z"  />
<glyph unicode="&#xA4;" horiz-adv-x="556" d="M281 524Q245 524 215 511T162 474T126 418T113 349Q113 313 126 281T161 226T214 190T280 176Q315 176 345 190T396 227T430 283T443 351Q443 386 431 417T397 472T345 510T281 524ZM74 604L130 548Q159 572 199 585T281 599Q321 599 359 586T424 549L481 605L531 554L476 499Q502 471 515 432T528 351Q528 309 515 271T476 201L531 145L484 98L428 156Q399 129 361 115T280 101Q236 101 197 114T128 155L73 97L25 145L80 203Q55 233 42 270T28 349Q28 391 41 430T82 497L25 555L74 604Z"  />
<glyph unicode="&#xA5;" horiz-adv-x="556" d="M206 174H61L75 234H219L227 286L219 309H89L103 369H200L90 714H188L289 370L528 714H636L387 369H483L470 309H341L317 276L308 234H455L441 174H295L259 0H170L206 174Z"  />
<glyph unicode="&#xA6;" horiz-adv-x="222" d="M145 411H77V661H145V411ZM77 161H145V-89H77V161Z"  />
<glyph unicode="&#xA7;" horiz-adv-x="556" d="M440 555Q441 600 418 628T343 656Q305 656 277 635T248 579Q248 550 262 528T295 486Q337 443 379 401T456 311Q473 288 482 266T491 215Q491 149 452 105T348 53Q362 38 369 11T377 -36Q377 -78 361 -108T318 -158T256 -187T183 -198Q141 -197 108 -183T53 -143T19 -84T7 -9H87Q87 -61 114 -92T197 -123Q236 -123 264 -102T292 -43Q292 -30 288 -16T276 11T260 37T243 58L109 203Q97 216 86 232T66 265T52 301T46 339Q46 407 84 444T185 496Q173 513 168 533T163 575Q163 614 178 643T218 691T277 721T345 731Q385 731 418 719T474 685T510 629T520 555H440ZM126 351Q126 321 145 293T185 244L255 169Q258 166 265 158T281 141T299 121T314 104Q356 113 383 136T411 204Q411 232 387 264T330 329T266 392T218 445Q213 445 204 442T186 433T168 423T156 414Q126 389 126 351Z"  />
<glyph unicode="&#xA8;" horiz-adv-x="222" d="M136 706H225L204 602H115L136 706ZM299 706H388L367 602H278L299 706Z"  />
<glyph unicode="&#xA9;" horiz-adv-x="800" d="M599 285Q583 212 533 170T413 128Q362 128 321 145T251 193T207 266T191 357Q191 407 206 449T249 521T318 568T410 585Q446 585 477 576T534 547T575 499T598 433H535Q527 475 494 502T411 530Q374 530 346 517T298 481T269 426T259 359Q259 324 269 292T300 236T348 198T413 183Q463 183 495 211T535 285H599ZM92 359Q92 290 115 232T180 130T278 63T401 38Q466 38 522 62T619 130T684 231T708 359Q708 426 685 483T620 584T522 651T401 676Q335 676 279 652T181 584T116 484T92 359ZM24 359Q24 438 54 506T135 624T255 702T401 731Q477 731 545 703T665 624T746 506T776 359Q776 278 746 210T665 91T546 12T401 -17Q324 -17 256 11T136 90T54 209T24 359Z"  />
<glyph unicode="&#xAA;" horiz-adv-x="311" d="M274 544H272Q257 531 227 529T166 523T115 508T93 467Q93 448 110 439T152 430Q207 433 230 449T262 499L274 544ZM75 606Q82 658 124 683T222 709Q240 709 262 705T303 693T336 670T349 636Q349 625 345 610T339 583L319 500Q316 487 311 470T306 442Q306 434 311 432T323 430Q330 430 338 433L330 387Q323 384 314 382T296 380Q273 380 262 393T252 426H249Q233 405 207 393T152 380Q99 380 66 400T33 473Q33 499 45 516T77 545T119 561T163 568Q187 570 210 572T250 581T278 597T289 624Q289 646 268 652T222 659Q190 659 166 647T135 606H75Z"  />
<glyph unicode="&#xAB;" horiz-adv-x="463" d="M226 250L248 342L422 442L401 357L281 289L368 199L349 114L226 250ZM30 250L52 342L226 442L205 357L85 289L172 199L153 114L30 250Z"  />
<glyph unicode="&#xAC;" horiz-adv-x="600" d="M552 109H484V320H48V388H552V109Z"  />
<glyph unicode="&#xAD;" horiz-adv-x="389" d="M42 318H332L316 238H26L42 318Z"  />
<glyph unicode="&#xAE;" horiz-adv-x="800" d="M323 382H394Q416 382 437 383T474 392T499 413T509 454Q509 476 501 489T479 509T448 518T413 521H323V382ZM255 576H424Q502 576 539 545T577 451Q577 392 544 365T462 332L587 139H514L395 327H323V139H255V576ZM92 359Q92 290 115 232T180 130T278 63T401 38Q466 38 522 62T619 130T684 231T708 359Q708 426 685 484T620 584T522 651T401 676Q335 676 279 652T181 585T116 484T92 359ZM24 359Q24 438 54 506T135 624T255 702T401 731Q477 731 545 703T665 624T746 506T776 359Q776 278 746 210T665 91T546 12T401 -17Q324 -17 256 11T136 90T54 209T24 359Z"  />
<glyph unicode="&#xAF;" horiz-adv-x="222" d="M104 682H373L362 627H92L104 682Z"  />
<glyph unicode="&#xB0;" horiz-adv-x="400" d="M127 561Q127 519 155 491T225 463Q267 463 295 491T323 561Q323 603 295 631T225 659Q183 659 155 631T127 561ZM77 561Q77 592 88 619T120 666T167 697T225 709Q256 709 283 698T330 666T361 619T373 561Q373 530 362 503T330 456T283 425T225 413Q194 413 167 424T120 456T89 503T77 561Z"  />
<glyph unicode="&#xB1;" horiz-adv-x="600" d="M48 68H552V0H48V68ZM48 339H266V505H334V339H552V271H334V104H266V271H48V339Z"  />
<glyph unicode="&#xB2;" horiz-adv-x="333" d="M55 561Q62 628 105 668T226 709Q254 709 278 701T321 678T349 642T360 594Q360 569 352 549T329 511T295 479T253 452L190 416Q174 407 157 397T124 377T99 356T87 335H318L308 280H12Q12 310 19 333T42 375T81 412T136 450L200 490Q215 499 231 509T260 531T283 557T292 591Q292 621 273 637T220 654Q175 652 150 627T123 561H55Z"  />
<glyph unicode="&#xB3;" horiz-adv-x="333" d="M169 527Q190 525 212 527T252 537T281 560T293 600Q293 632 272 643T219 654Q180 654 156 633T130 576H62Q65 634 108 671T222 709Q250 709 275 703T320 683T350 649T361 601Q361 566 336 539T273 503V501Q306 490 322 467T338 412Q338 387 327 362T294 318T240 286T166 273Q87 273 51 310T17 413H85Q84 395 86 380T98 353T123 335T168 328Q213 328 241 349T270 413Q270 437 261 450T236 470T200 477T160 477L169 527Z"  />
<glyph unicode="&#xB4;" horiz-adv-x="222" d="M270 732H383L247 589H177L270 732Z"  />
<glyph unicode="&#xB5;" horiz-adv-x="556" d="M411 0H329L345 78H343Q311 34 263 11T171 -12Q136 -12 111 1T78 26H76L29 -198H-56L93 517H178L112 215Q110 208 108 197T105 175T102 153T100 135Q100 98 126 81T190 63Q225 63 256 77T311 114T351 168T375 231L435 517H520L411 0Z"  />
<glyph unicode="&#xB6;" horiz-adv-x="600" d="M244 336Q198 336 163 350T105 390T74 449T73 522Q93 619 164 666T340 714H578L397 -155H333L502 659H376L207 -155H142L244 336Z"  />
<glyph unicode="&#xB7;" horiz-adv-x="278" d="M67 253Q67 281 86 299T131 317Q158 317 176 299T195 253Q195 225 177 207T131 189Q105 189 86 208T67 253Z"  />
<glyph unicode="&#xB8;" horiz-adv-x="222" d="M-103 -145Q-87 -150 -72 -155T-39 -160Q-16 -160 2 -155T21 -130Q21 -113 7 -106T-25 -99Q-36 -99 -46 -100T-67 -107L-86 -77L-18 0H30L-21 -54H-19Q-14 -52 -7 -51T7 -50Q22 -50 38 -53T67 -66T88 -89T96 -123Q96 -146 85 -162T57 -189T18 -205T-23 -210Q-72 -210 -121 -188L-103 -145Z"  />
<glyph unicode="&#xB9;" horiz-adv-x="333" d="M214 280H148L214 605Q185 595 159 592T97 588L106 638Q160 638 200 659T257 709H304L214 280Z"  />
<glyph unicode="&#xBA;" horiz-adv-x="344" d="M44 512Q44 550 57 585T94 648T154 692T234 709Q302 709 338 676T375 579Q375 541 362 505T325 442T267 397T189 380Q123 380 83 412T44 512ZM104 513Q104 478 125 454T189 430Q218 430 241 442T280 475T306 522T315 575Q315 610 295 634T230 659Q199 659 176 646T136 611T112 563T104 513Z"  />
<glyph unicode="&#xBB;" horiz-adv-x="463" d="M419 306L397 214L223 114L244 199L364 267L277 357L296 442L419 306ZM223 306L201 214L27 114L48 199L168 267L81 357L100 442L223 306Z"  />
<glyph unicode="&#xBC;" horiz-adv-x="834" d="M559 725H623L188 -28H124L559 725ZM196 280H130L196 605Q167 595 141 592T79 588L88 638Q142 638 182 659T239 709H286L196 280ZM621 151L662 332H660L482 151H621ZM611 96H412L423 154L692 429H750L686 151H747L734 96H674L652 0H589L611 96Z"  />
<glyph unicode="&#xBD;" horiz-adv-x="834" d="M559 725H623L188 -28H124L559 725ZM474 281Q481 348 524 388T645 429Q673 429 697 421T740 398T768 362T779 314Q779 289 771 269T748 231T714 199T672 172L609 136Q593 127 576 117T543 97T518 76T506 55H737L727 0H431Q431 30 438 53T461 95T500 132T555 170L619 210Q634 219 650 229T679 251T702 277T711 311Q711 341 692 357T639 374Q594 374 569 348T542 281H474ZM196 280H130L196 605Q167 595 141 592T79 588L88 638Q142 638 182 659T239 709H286L196 280Z"  />
<glyph unicode="&#xBE;" horiz-adv-x="834" d="M634 725H698L263 -28H199L634 725ZM169 527Q190 525 212 527T252 537T281 560T293 600Q293 632 272 643T219 654Q180 654 156 633T130 576H62Q65 634 108 671T222 709Q250 709 275 703T320 683T350 649T361 601Q361 566 336 539T273 503V501Q306 490 322 467T338 412Q338 387 327 362T294 318T240 286T166 273Q87 273 51 310T17 413H85Q84 395 86 380T98 353T123 335T168 328Q213 328 241 349T270 413Q270 437 261 450T236 470T200 477T160 477L169 527ZM700 332H698L520 151H659L700 332ZM649 96H450L461 154L730 429H788L724 151H785L772 96H712L690 0H627L649 96Z"  />
<glyph unicode="&#xBF;" horiz-adv-x="556" d="M348 406H238L260 517H373L348 406ZM431 25Q425 -29 406 -72T354 -146T277 -193T178 -210Q139 -210 103 -198T40 -164T-3 -108T-19 -32Q-19 29 12 72T91 151Q116 169 141 187T186 225T219 271T236 332H319Q312 287 299 256T267 199T220 153T158 107Q125 83 98 51T71 -25Q71 -49 79 -69T102 -104T137 -127T181 -135Q219 -135 247 -123T295 -90T327 -40T346 25H431Z"  />
<glyph unicode="&#xC0;" horiz-adv-x="667" d="M375 714H479L608 0H510L477 215H176L51 0H-55L375 714ZM219 295H465L412 630H410L219 295ZM478 779H411L310 922H411L478 779Z"  />
<glyph unicode="&#xC1;" horiz-adv-x="667" d="M375 714H479L608 0H510L477 215H176L51 0H-55L375 714ZM219 295H465L412 630H410L219 295ZM471 922H584L448 779H378L471 922Z"  />
<glyph unicode="&#xC2;" horiz-adv-x="667" d="M375 714H479L608 0H510L477 215H176L51 0H-55L375 714ZM219 295H465L412 630H410L219 295ZM415 922H501L576 779H502L451 872L364 779H282L415 922Z"  />
<glyph unicode="&#xC3;" horiz-adv-x="667" d="M375 714H479L608 0H510L477 215H176L51 0H-55L375 714ZM219 295H465L412 630H410L219 295ZM257 798Q263 816 271 835T290 870T318 896T356 907Q376 907 395 899T433 882Q452 874 468 867T497 861Q520 861 529 873T548 902H599Q593 883 585 864T565 829T537 803T497 793Q480 793 461 800T421 818T384 833T356 839Q336 839 326 827T309 798H257Z"  />
<glyph unicode="&#xC4;" horiz-adv-x="667" d="M375 714H479L608 0H510L477 215H176L51 0H-55L375 714ZM219 295H465L412 630H410L219 295ZM339 896H428L407 792H318L339 896ZM502 896H591L570 792H481L502 896Z"  />
<glyph unicode="&#xC5;" horiz-adv-x="667" d="M375 714H479L608 0H510L477 215H176L51 0H-55L375 714ZM219 295H465L412 630H410L219 295ZM326 860Q326 883 335 903T359 939T395 964T439 973Q462 973 482 964T518 940T543 904T552 860Q552 837 543 817T519 781T483 756T439 747Q416 747 396 756T360 780T335 816T326 860ZM371 860Q371 831 390 812T439 792Q468 792 487 811T507 860Q507 889 488 908T439 928Q410 928 391 909T371 860Z"  />
<glyph unicode="&#xC6;" horiz-adv-x="926" d="M441 714H965L948 634H597L550 407H880L862 327H533L480 80H837L821 0H366L409 208H179L30 0H-79L441 714ZM235 288H427L502 634H480L235 288Z"  />
<glyph unicode="&#xC7;" horiz-adv-x="722" d="M201 -145Q217 -150 232 -155T265 -160Q288 -160 306 -155T325 -130Q325 -113 311 -106T279 -99Q268 -99 258 -100T237 -107L218 -77L275 -12Q243 -6 214 4Q157 25 118 65T59 164T38 296Q38 383 65 461T142 600T265 695T430 731Q488 731 537 716T623 670T681 593T702 484H607Q607 568 558 609T430 651Q355 651 300 620T207 538T152 424T133 296Q133 244 146 201T185 128T250 80T344 63Q432 63 487 110T565 241H660Q633 121 555 52T344 -17Q331 -17 318 -16L283 -54H285Q290 -52 297 -51T311 -50Q326 -50 342 -53T371 -66T392 -89T400 -123Q400 -146 389 -162T361 -189T322 -205T281 -210Q232 -210 183 -188L201 -145Z"  />
<glyph unicode="&#xC8;" horiz-adv-x="611" d="M158 714H650L634 634H237L189 407H559L543 327H172L120 80H522L504 0H7L158 714ZM478 779H411L310 922H411L478 779Z"  />
<glyph unicode="&#xC9;" horiz-adv-x="611" d="M158 714H650L634 634H237L189 407H559L543 327H172L120 80H522L504 0H7L158 714ZM465 922H578L442 779H372L465 922Z"  />
<glyph unicode="&#xCA;" horiz-adv-x="611" d="M158 714H650L634 634H237L189 407H559L543 327H172L120 80H522L504 0H7L158 714ZM393 922H479L554 779H480L429 872L342 779H260L393 922Z"  />
<glyph unicode="&#xCB;" horiz-adv-x="611" d="M158 714H650L634 634H237L189 407H559L543 327H172L120 80H522L504 0H7L158 714ZM305 896H394L373 792H284L305 896ZM468 896H557L536 792H447L468 896Z"  />
<glyph unicode="&#xCC;" horiz-adv-x="259" d="M157 714H252L102 0H7L157 714ZM258 779H191L90 922H191L258 779Z"  />
<glyph unicode="&#xCD;" horiz-adv-x="259" d="M157 714H252L102 0H7L157 714ZM251 922H364L228 779H158L251 922Z"  />
<glyph unicode="&#xCE;" horiz-adv-x="259" d="M157 714H252L102 0H7L157 714ZM203 922H289L364 779H290L239 872L152 779H70L203 922Z"  />
<glyph unicode="&#xCF;" horiz-adv-x="259" d="M157 714H252L102 0H7L157 714ZM116 896H205L184 792H95L116 896ZM279 896H368L347 792H258L279 896Z"  />
<glyph unicode="&#xD0;" horiz-adv-x="704" d="M186 407H386L372 339H172L117 80H282Q358 80 414 110T508 190T564 303T583 431Q583 470 575 507T544 572T484 617T386 634H234L186 407ZM79 339H13L27 407H93L158 714H408Q541 714 609 641T678 441Q678 340 649 259T568 120T443 31T281 0H7L79 339Z"  />
<glyph unicode="&#xD1;" horiz-adv-x="722" d="M158 714H260L515 123H517L636 714H728L577 0H475L222 587H220L99 0H7L158 714ZM290 798Q296 816 304 835T323 870T351 896T389 907Q409 907 428 899T466 882Q485 874 501 867T530 861Q553 861 562 873T581 902H632Q626 883 618 864T598 829T570 803T530 793Q513 793 494 800T454 818T417 833T389 839Q369 839 359 827T342 798H290Z"  />
<glyph unicode="&#xD2;" horiz-adv-x="759" d="M133 296Q133 244 146 201T185 128T250 80T344 63Q415 63 469 94T559 175T614 288T633 415Q633 464 620 507T581 582T517 632T430 651Q355 651 300 620T207 538T152 424T133 296ZM38 296Q38 383 65 461T142 600T265 695T430 731Q499 731 554 707T648 640T707 539T728 415Q728 331 702 253T626 115T505 19T344 -17Q271 -17 214 4T118 65T59 164T38 296ZM494 779H427L326 922H427L494 779Z"  />
<glyph unicode="&#xD3;" horiz-adv-x="759" d="M133 296Q133 244 146 201T185 128T250 80T344 63Q415 63 469 94T559 175T614 288T633 415Q633 464 620 507T581 582T517 632T430 651Q355 651 300 620T207 538T152 424T133 296ZM38 296Q38 383 65 461T142 600T265 695T430 731Q499 731 554 707T648 640T707 539T728 415Q728 331 702 253T626 115T505 19T344 -17Q271 -17 214 4T118 65T59 164T38 296ZM486 922H599L463 779H393L486 922Z"  />
<glyph unicode="&#xD4;" horiz-adv-x="759" d="M133 296Q133 244 146 201T185 128T250 80T344 63Q415 63 469 94T559 175T614 288T633 415Q633 464 620 507T581 582T517 632T430 651Q355 651 300 620T207 538T152 424T133 296ZM38 296Q38 383 65 461T142 600T265 695T430 731Q499 731 554 707T648 640T707 539T728 415Q728 331 702 253T626 115T505 19T344 -17Q271 -17 214 4T118 65T59 164T38 296ZM445 922H531L606 779H532L481 872L394 779H312L445 922Z"  />
<glyph unicode="&#xD5;" horiz-adv-x="759" d="M133 296Q133 244 146 201T185 128T250 80T344 63Q415 63 469 94T559 175T614 288T633 415Q633 464 620 507T581 582T517 632T430 651Q355 651 300 620T207 538T152 424T133 296ZM38 296Q38 383 65 461T142 600T265 695T430 731Q499 731 554 707T648 640T707 539T728 415Q728 331 702 253T626 115T505 19T344 -17Q271 -17 214 4T118 65T59 164T38 296ZM296 798Q302 816 310 835T329 870T357 896T395 907Q415 907 434 899T472 882Q491 874 507 867T536 861Q559 861 568 873T587 902H638Q632 883 624 864T604 829T576 803T536 793Q519 793 500 800T460 818T423 833T395 839Q375 839 365 827T348 798H296Z"  />
<glyph unicode="&#xD6;" horiz-adv-x="759" d="M133 296Q133 244 146 201T185 128T250 80T344 63Q415 63 469 94T559 175T614 288T633 415Q633 464 620 507T581 582T517 632T430 651Q355 651 300 620T207 538T152 424T133 296ZM38 296Q38 383 65 461T142 600T265 695T430 731Q499 731 554 707T648 640T707 539T728 415Q728 331 702 253T626 115T505 19T344 -17Q271 -17 214 4T118 65T59 164T38 296ZM348 896H437L416 792H327L348 896ZM511 896H600L579 792H490L511 896Z"  />
<glyph unicode="&#xD7;" horiz-adv-x="600" d="M71 72L253 254L72 434L120 482L301 302L481 482L529 434L349 254L530 72L482 24L301 206L119 24L71 72Z"  />
<glyph unicode="&#xD8;" horiz-adv-x="759" d="M181 135Q207 101 247 82T344 63Q415 63 469 94T559 175T614 288T633 415Q633 487 606 541L181 135ZM583 579Q557 613 519 632T430 651Q355 651 300 620T207 538T152 424T133 296Q133 226 158 173L583 579ZM88 106Q64 143 51 191T38 296Q38 383 65 461T142 600T265 695T430 731Q500 731 554 707T647 640L745 733L774 701L674 606Q700 566 714 518T728 415Q728 331 702 253T626 115T505 19T344 -17Q269 -17 212 6T115 71H112L17 -22L-12 10L88 106Z"  />
<glyph unicode="&#xD9;" horiz-adv-x="722" d="M639 286Q630 244 621 207T603 149Q585 105 557 74T492 22T413 -7T325 -17Q167 -17 101 63T66 294L155 714H250L156 270Q132 166 176 115T325 63Q383 63 420 79T482 124T519 194T543 286L633 714H728L639 286ZM475 779H408L307 922H408L475 779Z"  />
<glyph unicode="&#xDA;" horiz-adv-x="722" d="M639 286Q630 244 621 207T603 149Q585 105 557 74T492 22T413 -7T325 -17Q167 -17 101 63T66 294L155 714H250L156 270Q132 166 176 115T325 63Q383 63 420 79T482 124T519 194T543 286L633 714H728L639 286ZM498 922H611L475 779H405L498 922Z"  />
<glyph unicode="&#xDB;" horiz-adv-x="722" d="M639 286Q630 244 621 207T603 149Q585 105 557 74T492 22T413 -7T325 -17Q167 -17 101 63T66 294L155 714H250L156 270Q132 166 176 115T325 63Q383 63 420 79T482 124T519 194T543 286L633 714H728L639 286ZM436 922H522L597 779H523L472 872L385 779H303L436 922Z"  />
<glyph unicode="&#xDC;" horiz-adv-x="722" d="M639 286Q630 244 621 207T603 149Q585 105 557 74T492 22T413 -7T325 -17Q167 -17 101 63T66 294L155 714H250L156 270Q132 166 176 115T325 63Q383 63 420 79T482 124T519 194T543 286L633 714H728L639 286ZM340 896H429L408 792H319L340 896ZM503 896H592L571 792H482L503 896Z"  />
<glyph unicode="&#xDD;" horiz-adv-x="611" d="M254 287L66 714H167L313 368L584 714H694L348 287L286 0H193L254 287ZM452 922H565L429 779H359L452 922Z"  />
<glyph unicode="&#xDE;" horiz-adv-x="648" d="M156 258H371Q448 258 488 298T529 403Q529 436 520 458T494 494T457 514T412 520H211L156 258ZM156 714H251L228 600H412Q515 600 569 551T624 403Q624 370 611 331T567 257T483 201T351 178H139L102 0H7L156 714Z"  />
<glyph unicode="&#xDF;" horiz-adv-x="537" d="M102 504Q112 555 128 596T172 668T237 714T327 731Q363 731 397 723T457 697T498 651T514 581Q514 545 503 514T472 457T425 417T365 397V395Q393 391 414 378T449 345T470 300T478 248Q478 195 459 148T407 66T329 9T229 -12Q210 -12 192 -11T156 -7L170 65Q178 63 185 63Q192 63 200 63Q240 63 275 75T336 109T378 165T393 241Q393 280 380 303T345 338T294 354T232 357L247 427Q281 425 313 431T371 455T413 499T429 564Q429 587 420 604T397 632T366 650T331 656Q293 656 268 642T227 606T201 555T186 497L81 0H-5L102 504Z"  />
<glyph unicode="&#xE0;" horiz-adv-x="519" d="M53 361Q59 404 79 435T130 488T198 519T277 529Q314 529 348 523T409 502T450 462T466 397Q466 375 461 350T450 303L417 162Q414 146 409 126T403 88Q403 70 410 63T428 56Q434 56 441 58T455 63L442 0Q432 -5 417 -8T390 -12Q355 -12 337 7T323 61L321 63Q294 27 254 8T148 -12Q116 -12 87 -4T37 21T3 66T-10 134Q-10 190 14 222T77 271T162 294T251 304Q285 307 309 310T350 322T373 345T381 386Q381 407 371 420T346 440T313 451T277 454Q253 454 230 449T187 433T155 404T138 361H53ZM75 135Q75 99 103 81T168 63Q269 63 313 131Q334 160 341 194T358 264H356Q342 256 323 251T283 241T237 235T190 229T146 220T110 204T85 177T75 135ZM375 589H308L207 732H308L375 589Z"  />
<glyph unicode="&#xE1;" horiz-adv-x="519" d="M53 361Q59 404 79 435T130 488T198 519T277 529Q314 529 348 523T409 502T450 462T466 397Q466 375 461 350T450 303L417 162Q414 146 409 126T403 88Q403 70 410 63T428 56Q434 56 441 58T455 63L442 0Q432 -5 417 -8T390 -12Q355 -12 337 7T323 61L321 63Q294 27 254 8T148 -12Q116 -12 87 -4T37 21T3 66T-10 134Q-10 190 14 222T77 271T162 294T251 304Q285 307 309 310T350 322T373 345T381 386Q381 407 371 420T346 440T313 451T277 454Q253 454 230 449T187 433T155 404T138 361H53ZM75 135Q75 99 103 81T168 63Q269 63 313 131Q334 160 341 194T358 264H356Q342 256 323 251T283 241T237 235T190 229T146 220T110 204T85 177T75 135ZM364 732H477L341 589H271L364 732Z"  />
<glyph unicode="&#xE2;" horiz-adv-x="519" d="M53 361Q59 404 79 435T130 488T198 519T277 529Q314 529 348 523T409 502T450 462T466 397Q466 375 461 350T450 303L417 162Q414 146 409 126T403 88Q403 70 410 63T428 56Q434 56 441 58T455 63L442 0Q432 -5 417 -8T390 -12Q355 -12 337 7T323 61L321 63Q294 27 254 8T148 -12Q116 -12 87 -4T37 21T3 66T-10 134Q-10 190 14 222T77 271T162 294T251 304Q285 307 309 310T350 322T373 345T381 386Q381 407 371 420T346 440T313 451T277 454Q253 454 230 449T187 433T155 404T138 361H53ZM75 135Q75 99 103 81T168 63Q269 63 313 131Q334 160 341 194T358 264H356Q342 256 323 251T283 241T237 235T190 229T146 220T110 204T85 177T75 135ZM282 732H368L443 589H369L318 682L231 589H149L282 732Z"  />
<glyph unicode="&#xE3;" horiz-adv-x="519" d="M53 361Q59 404 79 435T130 488T198 519T277 529Q314 529 348 523T409 502T450 462T466 397Q466 375 461 350T450 303L417 162Q414 146 409 126T403 88Q403 70 410 63T428 56Q434 56 441 58T455 63L442 0Q432 -5 417 -8T390 -12Q355 -12 337 7T323 61L321 63Q294 27 254 8T148 -12Q116 -12 87 -4T37 21T3 66T-10 134Q-10 190 14 222T77 271T162 294T251 304Q285 307 309 310T350 322T373 345T381 386Q381 407 371 420T346 440T313 451T277 454Q253 454 230 449T187 433T155 404T138 361H53ZM75 135Q75 99 103 81T168 63Q269 63 313 131Q334 160 341 194T358 264H356Q342 256 323 251T283 241T237 235T190 229T146 220T110 204T85 177T75 135ZM134 608Q140 626 148 645T167 680T195 706T233 717Q253 717 272 709T310 692Q329 684 345 677T374 671Q397 671 406 683T425 712H476Q470 693 462 674T442 639T414 613T374 603Q357 603 338 610T298 628T261 643T233 649Q213 649 203 637T186 608H134Z"  />
<glyph unicode="&#xE4;" horiz-adv-x="519" d="M53 361Q59 404 79 435T130 488T198 519T277 529Q314 529 348 523T409 502T450 462T466 397Q466 375 461 350T450 303L417 162Q414 146 409 126T403 88Q403 70 410 63T428 56Q434 56 441 58T455 63L442 0Q432 -5 417 -8T390 -12Q355 -12 337 7T323 61L321 63Q294 27 254 8T148 -12Q116 -12 87 -4T37 21T3 66T-10 134Q-10 190 14 222T77 271T162 294T251 304Q285 307 309 310T350 322T373 345T381 386Q381 407 371 420T346 440T313 451T277 454Q253 454 230 449T187 433T155 404T138 361H53ZM75 135Q75 99 103 81T168 63Q269 63 313 131Q334 160 341 194T358 264H356Q342 256 323 251T283 241T237 235T190 229T146 220T110 204T85 177T75 135ZM197 706H286L265 602H176L197 706ZM360 706H449L428 602H339L360 706Z"  />
<glyph unicode="&#xE5;" horiz-adv-x="519" d="M53 361Q59 404 79 435T130 488T198 519T277 529Q314 529 348 523T409 502T450 462T466 397Q466 375 461 350T450 303L417 162Q414 146 409 126T403 88Q403 70 410 63T428 56Q434 56 441 58T455 63L442 0Q432 -5 417 -8T390 -12Q355 -12 337 7T323 61L321 63Q294 27 254 8T148 -12Q116 -12 87 -4T37 21T3 66T-10 134Q-10 190 14 222T77 271T162 294T251 304Q285 307 309 310T350 322T373 345T381 386Q381 407 371 420T346 440T313 451T277 454Q253 454 230 449T187 433T155 404T138 361H53ZM75 135Q75 99 103 81T168 63Q269 63 313 131Q334 160 341 194T358 264H356Q342 256 323 251T283 241T237 235T190 229T146 220T110 204T85 177T75 135ZM204 676Q204 699 213 719T237 755T273 780T317 789Q340 789 360 780T396 756T421 720T430 676Q430 653 421 633T397 597T361 572T317 563Q294 563 274 572T238 596T213 632T204 676ZM249 676Q249 647 268 628T317 608Q346 608 365 627T385 676Q385 705 366 724T317 744Q288 744 269 725T249 676Z"  />
<glyph unicode="&#xE6;" horiz-adv-x="870" d="M80 132Q80 113 88 100T109 79T140 67T176 63Q211 63 243 73T301 108Q314 121 324 140T341 181T354 225T362 266Q343 257 321 252T276 242T229 235T183 228T143 218T110 200T88 173T80 132ZM64 362Q71 408 92 439T144 491T213 520T295 529Q320 529 344 526T390 513T430 488T460 448Q488 487 532 508T625 529Q724 529 774 476T824 326Q824 303 820 280T810 233H435Q433 221 432 208T430 181Q430 158 437 137T460 99T498 73T554 63Q611 63 649 88T707 162H794Q789 147 782 133T766 104Q726 44 673 16T547 -12Q517 -12 489 -7T437 11T395 45T365 100Q331 43 280 16T162 -12Q130 -12 100 -6T46 17T9 62T-5 132Q-5 174 12 202T56 249T119 276T192 290T264 297T326 310T371 336T388 385Q388 407 378 420T351 441T314 451T275 454Q227 454 193 431T147 362H64ZM739 308Q743 336 739 362T720 409T681 442T621 454Q586 454 558 442T507 410T471 363T449 308H739Z"  />
<glyph unicode="&#xE7;" horiz-adv-x="537" d="M97 -145Q113 -150 128 -155T161 -160Q184 -160 202 -155T221 -130Q221 -113 207 -106T175 -99Q164 -99 154 -100T133 -107L114 -77L176 -7Q112 5 74 47Q21 106 21 211Q21 272 39 329T94 431T184 502T307 529Q395 529 446 487T501 353H416Q416 401 387 427T307 454Q258 454 221 432T158 375T119 297T106 211Q106 181 112 154T134 107T173 75T234 63Q289 63 328 92T385 169H470Q447 82 386 35T234 -12H219L179 -54H181Q186 -52 193 -51T207 -50Q222 -50 238 -53T267 -66T288 -89T296 -123Q296 -146 285 -162T257 -189T218 -205T177 -210Q128 -210 79 -188L97 -145Z"  />
<glyph unicode="&#xE8;" horiz-adv-x="537" d="M98 233Q95 210 95 188Q95 158 106 135T136 96T179 72T229 63Q285 63 322 88T378 162H463Q453 119 431 87T378 32T309 -1T229 -12Q165 -12 123 8T55 58T20 125T10 196Q10 270 31 331T89 437T174 505T276 529Q390 529 442 469T495 300Q495 280 492 262T487 233H98ZM410 308Q412 335 407 361T387 408T349 441T289 454Q251 454 222 443T172 411T135 365T110 308H410ZM352 589H285L184 732H285L352 589Z"  />
<glyph unicode="&#xE9;" horiz-adv-x="537" d="M98 233Q95 210 95 188Q95 158 106 135T136 96T179 72T229 63Q285 63 322 88T378 162H463Q453 119 431 87T378 32T309 -1T229 -12Q165 -12 123 8T55 58T20 125T10 196Q10 270 31 331T89 437T174 505T276 529Q390 529 442 469T495 300Q495 280 492 262T487 233H98ZM410 308Q412 335 407 361T387 408T349 441T289 454Q251 454 222 443T172 411T135 365T110 308H410ZM365 732H478L342 589H272L365 732Z"  />
<glyph unicode="&#xEA;" horiz-adv-x="537" d="M98 233Q95 210 95 188Q95 158 106 135T136 96T179 72T229 63Q285 63 322 88T378 162H463Q453 119 431 87T378 32T309 -1T229 -12Q165 -12 123 8T55 58T20 125T10 196Q10 270 31 331T89 437T174 505T276 529Q390 529 442 469T495 300Q495 280 492 262T487 233H98ZM410 308Q412 335 407 361T387 408T349 441T289 454Q251 454 222 443T172 411T135 365T110 308H410ZM285 732H371L446 589H372L321 682L234 589H152L285 732Z"  />
<glyph unicode="&#xEB;" horiz-adv-x="537" d="M98 233Q95 210 95 188Q95 158 106 135T136 96T179 72T229 63Q285 63 322 88T378 162H463Q453 119 431 87T378 32T309 -1T229 -12Q165 -12 123 8T55 58T20 125T10 196Q10 270 31 331T89 437T174 505T276 529Q390 529 442 469T495 300Q495 280 492 262T487 233H98ZM410 308Q412 335 407 361T387 408T349 441T289 454Q251 454 222 443T172 411T135 365T110 308H410ZM205 706H294L273 602H184L205 706ZM368 706H457L436 602H347L368 706Z"  />
<glyph unicode="&#xEC;" horiz-adv-x="222" d="M-5 0L103 517H188L80 0H-5ZM190 589H123L22 732H123L190 589Z"  />
<glyph unicode="&#xED;" horiz-adv-x="222" d="M-5 0L103 517H188L80 0H-5ZM199 732H312L176 589H106L199 732Z"  />
<glyph unicode="&#xEE;" horiz-adv-x="222" d="M-5 0L103 517H188L80 0H-5ZM142 732H228L303 589H229L178 682L91 589H9L142 732Z"  />
<glyph unicode="&#xEF;" horiz-adv-x="222" d="M-5 0L103 517H188L80 0H-5ZM59 706H148L127 602H38L59 706ZM222 706H311L290 602H201L222 706Z"  />
<glyph unicode="&#xF0;" horiz-adv-x="574" d="M508 696L400 641Q429 613 453 584T493 519T519 441T529 342Q529 269 511 205T455 92T363 16T235 -12Q184 -12 144 4T75 48T32 115T17 199Q17 259 36 314T93 412T184 480T306 506Q340 506 373 496T435 453H437Q430 476 417 499T389 543T357 580T328 605L214 548L172 588L285 644Q271 655 257 665T226 686L290 731Q307 720 324 709T359 681L464 734L508 696ZM300 431Q251 431 214 409T152 352T115 278T102 200Q102 140 138 102T244 63Q290 63 326 86T388 144T426 221T439 299Q439 356 405 393T300 431Z"  />
<glyph unicode="&#xF1;" horiz-adv-x="556" d="M104 517H186L170 439H172Q204 483 253 506T356 529Q429 529 464 497T500 396Q500 379 496 352T485 295L422 0H337L403 302Q404 309 406 320T410 342T413 364T415 382Q415 419 389 436T325 454Q290 454 256 437T197 394Q174 374 161 346T140 286L80 0H-5L104 517ZM170 608Q176 626 184 645T203 680T231 706T269 717Q289 717 308 709T346 692Q365 684 381 677T410 671Q433 671 442 683T461 712H512Q506 693 498 674T478 639T450 613T410 603Q393 603 374 610T334 628T297 643T269 649Q249 649 239 637T222 608H170Z"  />
<glyph unicode="&#xF2;" horiz-adv-x="574" d="M17 204Q17 267 36 326T93 430T184 502T306 529Q410 529 465 474T521 315Q521 252 502 193T446 89T356 16T235 -12Q184 -12 144 4T75 49T32 117T17 204ZM102 205Q102 141 138 102T244 63Q290 63 326 87T386 147T423 227T436 308Q436 338 428 365T403 411T361 442T300 454Q251 454 214 430T152 370T115 289T102 205ZM372 589H305L204 732H305L372 589Z"  />
<glyph unicode="&#xF3;" horiz-adv-x="574" d="M17 204Q17 267 36 326T93 430T184 502T306 529Q410 529 465 474T521 315Q521 252 502 193T446 89T356 16T235 -12Q184 -12 144 4T75 49T32 117T17 204ZM102 205Q102 141 138 102T244 63Q290 63 326 87T386 147T423 227T436 308Q436 338 428 365T403 411T361 442T300 454Q251 454 214 430T152 370T115 289T102 205ZM386 732H499L363 589H293L386 732Z"  />
<glyph unicode="&#xF4;" horiz-adv-x="574" d="M17 204Q17 267 36 326T93 430T184 502T306 529Q410 529 465 474T521 315Q521 252 502 193T446 89T356 16T235 -12Q184 -12 144 4T75 49T32 117T17 204ZM102 205Q102 141 138 102T244 63Q290 63 326 87T386 147T423 227T436 308Q436 338 428 365T403 411T361 442T300 454Q251 454 214 430T152 370T115 289T102 205ZM318 732H404L479 589H405L354 682L267 589H185L318 732Z"  />
<glyph unicode="&#xF5;" horiz-adv-x="574" d="M17 204Q17 267 36 326T93 430T184 502T306 529Q410 529 465 474T521 315Q521 252 502 193T446 89T356 16T235 -12Q184 -12 144 4T75 49T32 117T17 204ZM102 205Q102 141 138 102T244 63Q290 63 326 87T386 147T423 227T436 308Q436 338 428 365T403 411T361 442T300 454Q251 454 214 430T152 370T115 289T102 205ZM178 608Q184 626 192 645T211 680T239 706T277 717Q297 717 316 709T354 692Q373 684 389 677T418 671Q441 671 450 683T469 712H520Q514 693 506 674T486 639T458 613T418 603Q401 603 382 610T342 628T305 643T277 649Q257 649 247 637T230 608H178Z"  />
<glyph unicode="&#xF6;" horiz-adv-x="574" d="M17 204Q17 267 36 326T93 430T184 502T306 529Q410 529 465 474T521 315Q521 252 502 193T446 89T356 16T235 -12Q184 -12 144 4T75 49T32 117T17 204ZM102 205Q102 141 138 102T244 63Q290 63 326 87T386 147T423 227T436 308Q436 338 428 365T403 411T361 442T300 454Q251 454 214 430T152 370T115 289T102 205ZM225 706H314L293 602H204L225 706ZM388 706H477L456 602H367L388 706Z"  />
<glyph unicode="&#xF7;" horiz-adv-x="600" d="M236 47Q236 73 255 92T300 111Q326 111 345 92T364 47Q364 23 345 3T301 -17Q275 -17 256 2T236 47ZM236 459Q236 485 255 504T300 523Q326 523 345 504T364 459Q364 435 345 415T301 395Q275 395 256 414T236 459ZM48 287H552V219H48V287Z"  />
<glyph unicode="&#xF8;" horiz-adv-x="574" d="M47 83Q17 132 17 204Q17 267 36 326T93 430T184 502T306 529Q417 529 471 466L541 529L566 501L493 435Q521 387 521 315Q521 252 502 193T446 89T356 16T235 -12Q125 -12 69 53L-6 -15L-30 13L47 83ZM408 409Q391 429 365 441T300 454Q251 454 214 430T152 370T115 289T102 205Q102 168 112 142H113L408 409ZM130 108Q147 88 175 76T244 63Q290 63 326 87T386 147T423 227T436 308Q436 346 425 374L130 108Z"  />
<glyph unicode="&#xF9;" horiz-adv-x="556" d="M411 0H329L345 78H343Q311 34 262 11T159 -12Q86 -12 51 20T15 121Q15 138 19 165T30 222L93 517H178L112 215Q110 208 108 197T105 175T102 153T100 135Q100 98 126 81T190 63Q225 63 256 77T311 114T351 168T375 231L435 517H520L411 0ZM353 589H286L185 732H286L353 589Z"  />
<glyph unicode="&#xFA;" horiz-adv-x="556" d="M411 0H329L345 78H343Q311 34 262 11T159 -12Q86 -12 51 20T15 121Q15 138 19 165T30 222L93 517H178L112 215Q110 208 108 197T105 175T102 153T100 135Q100 98 126 81T190 63Q225 63 256 77T311 114T351 168T375 231L435 517H520L411 0ZM368 732H481L345 589H275L368 732Z"  />
<glyph unicode="&#xFB;" horiz-adv-x="556" d="M411 0H329L345 78H343Q311 34 262 11T159 -12Q86 -12 51 20T15 121Q15 138 19 165T30 222L93 517H178L112 215Q110 208 108 197T105 175T102 153T100 135Q100 98 126 81T190 63Q225 63 256 77T311 114T351 168T375 231L435 517H520L411 0ZM302 732H388L463 589H389L338 682L251 589H169L302 732Z"  />
<glyph unicode="&#xFC;" horiz-adv-x="556" d="M411 0H329L345 78H343Q311 34 262 11T159 -12Q86 -12 51 20T15 121Q15 138 19 165T30 222L93 517H178L112 215Q110 208 108 197T105 175T102 153T100 135Q100 98 126 81T190 63Q225 63 256 77T311 114T351 168T375 231L435 517H520L411 0ZM208 706H297L276 602H187L208 706ZM371 706H460L439 602H350L371 706Z"  />
<glyph unicode="&#xFD;" horiz-adv-x="481" d="M163 -88Q147 -113 132 -135T97 -174T53 -200T-4 -210Q-19 -210 -35 -207T-63 -197L-48 -128Q-38 -134 -24 -138T1 -142Q30 -142 48 -127T81 -86L133 0L42 517H133L193 106H195L412 517H505L163 -88ZM347 732H460L324 589H254L347 732Z"  />
<glyph unicode="&#xFE;" horiz-adv-x="593" d="M142 714H227L164 443H166Q204 493 244 511T337 529Q386 529 424 514T488 470T527 403T540 317Q540 258 521 200T465 94T375 18T253 -12Q229 -12 204 -8T157 7T117 35T92 79H90L35 -198H-49L142 714ZM455 317Q455 380 424 417T322 454Q274 454 236 429T173 366T134 283T120 197Q120 139 153 101T250 63Q301 63 339 86T403 147T442 229T455 317Z"  />
<glyph unicode="&#xFF;" horiz-adv-x="481" d="M163 -88Q147 -113 132 -135T97 -174T53 -200T-4 -210Q-19 -210 -35 -207T-63 -197L-48 -128Q-38 -134 -24 -138T1 -142Q30 -142 48 -127T81 -86L133 0L42 517H133L193 106H195L412 517H505L163 -88ZM181 706H270L249 602H160L181 706ZM344 706H433L412 602H323L344 706Z"  />
<glyph unicode="&#x131;" horiz-adv-x="222" d="M-5 0L103 517H188L80 0H-5Z"  />
<glyph unicode="&#x152;" horiz-adv-x="1074" d="M1090 634H711L663 407H1010L994 327H647L595 80H979L963 0H488L501 57H499Q469 19 421 1T323 -17Q253 -17 201 8T113 75T60 176T42 300Q42 379 68 456T143 595T261 693T418 731Q447 731 477 726T534 709T585 679T624 634L640 714H1106L1090 634ZM594 534Q598 556 583 577T543 614T486 641T427 651Q355 651 301 619T210 536T156 421T137 292Q137 248 148 207T184 134T244 83T328 63Q369 63 408 77T478 121T519 183T538 257L594 534Z"  />
<glyph unicode="&#x153;" horiz-adv-x="907" d="M667 454Q631 454 602 443T551 412T514 366T492 308H782Q783 316 783 322T784 337Q784 360 777 381T756 418T719 444T667 454ZM102 195Q102 168 110 144T134 102T174 74T230 63Q283 63 319 92T376 163T407 255T417 345Q417 399 383 426T297 454Q249 454 213 429T152 365T115 281T102 195ZM838 163Q809 75 744 32T588 -12Q527 -12 480 9T409 90Q381 41 331 15T225 -12Q128 -12 73 37T17 191Q17 252 37 312T94 421T184 499T305 529Q335 529 362 525T411 509T451 478T479 428Q507 480 559 504T669 529Q770 529 819 473T869 324Q869 315 868 303T866 278T862 254T858 233H479Q476 221 474 208T472 180Q472 120 507 92T603 63Q654 63 694 91T751 163H838Z"  />
<glyph unicode="&#x160;" horiz-adv-x="648" d="M519 503Q520 545 509 573T475 619T423 644T355 651Q329 651 300 645T247 624T206 588T190 534Q190 508 199 490T223 458T260 435T306 419L402 393Q435 384 466 371T521 336T559 281T574 200Q574 145 549 104T483 36T394 -4T296 -17Q231 -17 178 -3T87 43T30 121T15 234H110Q108 186 121 153T159 100T220 72T300 63Q333 63 365 71T423 95T463 138T479 200Q479 227 469 246T442 279T401 302T352 318L255 344Q223 353 194 367T143 403T108 455T95 524Q95 576 118 614T177 679T260 718T355 731Q408 731 455 718T539 677T595 606T614 503H519ZM427 779H341L264 922H340L391 829L484 922H562L427 779Z"  />
<glyph unicode="&#x161;" horiz-adv-x="481" d="M355 365Q356 387 348 403T325 431T290 448T248 454Q228 454 209 451T174 441T148 420T138 388Q138 370 149 357T180 333T224 313T274 293Q299 282 324 270T368 240T399 201T411 148Q411 105 392 75T343 25T275 -3T200 -12Q156 -12 118 -3T51 26T7 79T-9 163H76Q74 134 84 115T113 85T156 68T208 63Q229 63 250 67T288 80T315 105T326 142Q326 161 315 174T284 199T240 219T190 240Q164 250 140 262T96 290T65 329T53 380Q53 416 69 444T113 490T174 519T245 529Q281 529 316 521T378 493T423 442T440 365H355ZM311 589H225L148 732H224L275 639L368 732H446L311 589Z"  />
<glyph unicode="&#x178;" horiz-adv-x="611" d="M254 287L66 714H167L313 368L584 714H694L348 287L286 0H193L254 287ZM283 896H372L351 792H262L283 896ZM446 896H535L514 792H425L446 896Z"  />
<glyph unicode="&#x17D;" horiz-adv-x="611" d="M-21 79L515 634H106L126 714H647L630 633L90 80H546L529 0H-38L-21 79ZM429 779H343L266 922H342L393 829L486 922H564L429 779Z"  />
<glyph unicode="&#x17E;" horiz-adv-x="444" d="M-41 64L319 442H41L56 517H449L436 456L73 75H382L368 0H-53L-41 64ZM295 589H209L132 732H208L259 639L352 732H430L295 589Z"  />
<glyph unicode="&#x192;" horiz-adv-x="556" d="M245 449L291 613Q307 669 348 691T447 714Q464 714 480 712T512 706L492 633Q483 637 473 638T452 639Q428 639 413 634T388 616T371 584T356 536L332 449H443L425 381H314L196 -34Q179 -99 142 -132T37 -165Q23 -165 9 -164T-19 -160L2 -86Q10 -88 19 -89T40 -90Q76 -85 92 -61T117 -6L227 381H132L150 449H245Z"  />
<glyph unicode="&#x2C6;" horiz-adv-x="222" d="M203 732H289L364 589H290L239 682L152 589H70L203 732Z"  />
<glyph unicode="&#x2C7;" horiz-adv-x="222" d="M268 589H182L105 732H181L232 639L325 732H403L268 589Z"  />
<glyph unicode="&#x2DA;" horiz-adv-x="222" d="M126 680Q126 703 135 723T159 759T195 784T239 793Q262 793 282 784T318 760T343 724T352 680Q352 657 343 637T319 601T283 576T239 567Q216 567 196 576T160 600T135 636T126 680ZM171 680Q171 651 190 632T239 612Q268 612 287 631T307 680Q307 709 288 728T239 748Q210 748 191 729T171 680Z"  />
<glyph unicode="&#x2DC;" horiz-adv-x="222" d="M63 608Q69 626 77 645T96 680T124 706T162 717Q182 717 201 709T239 692Q258 684 274 677T303 671Q326 671 335 683T354 712H405Q399 693 391 674T371 639T343 613T303 603Q286 603 267 610T227 628T190 643T162 649Q142 649 132 637T115 608H63Z"  />
<glyph unicode="&#x2013;" horiz-adv-x="500" d="M-7 318H493L477 238H-23L-7 318Z"  />
<glyph unicode="&#x2014;" horiz-adv-x="1000" d="M123 318H863L847 238H107L123 318Z"  />
<glyph unicode="&#x2018;" horiz-adv-x="278" d="M222 456H111Q121 498 128 542T151 622T195 684T277 714L267 666Q247 663 234 654T213 631T200 601T190 567H246L222 456Z"  />
<glyph unicode="&#x2019;" horiz-adv-x="278" d="M162 714H273Q263 672 256 628T233 548T188 486T107 456L117 504Q137 507 150 516T171 539T184 569T194 603H138L162 714Z"  />
<glyph unicode="&#x201A;" horiz-adv-x="278" d="M22 111H133Q123 69 116 25T93 -55T48 -117T-33 -147L-23 -99Q-3 -96 10 -87T31 -64T44 -34T54 0H-2L22 111Z"  />
<glyph unicode="&#x201C;" horiz-adv-x="426" d="M200 456H89Q99 498 106 542T129 622T173 684T255 714L245 666Q225 663 212 654T191 631T178 601T168 567H224L200 456ZM382 456H271Q281 498 288 542T311 622T355 684T437 714L427 666Q407 663 394 654T373 631T360 601T350 567H406L382 456Z"  />
<glyph unicode="&#x201D;" horiz-adv-x="426" d="M322 714H433Q423 672 416 628T393 548T348 486T267 456L277 504Q297 507 310 516T331 539T344 569T354 603H298L322 714ZM140 714H251Q241 672 234 628T211 548T166 486T85 456L95 504Q115 507 128 516T149 539T162 569T172 603H116L140 714Z"  />
<glyph unicode="&#x201E;" horiz-adv-x="426" d="M201 111H312Q302 69 295 25T272 -55T227 -117T146 -147L156 -99Q176 -96 189 -87T210 -64T223 -34T233 0H177L201 111ZM19 111H130Q120 69 113 25T90 -55T45 -117T-36 -147L-26 -99Q-6 -96 7 -87T28 -64T41 -34T51 0H-5L19 111Z"  />
<glyph unicode="&#x2020;" horiz-adv-x="556" d="M254 442H63L79 517H270L312 714H397L355 517H546L530 442H339L213 -155H128L254 442Z"  />
<glyph unicode="&#x2021;" horiz-adv-x="556" d="M170 42H-21L-5 117H186L254 442H63L79 517H270L312 714H397L355 517H546L530 442H339L271 117H462L446 42H255L213 -155H128L170 42Z"  />
<glyph unicode="&#x2022;" horiz-adv-x="500" d="M72 357Q72 394 86 426T124 483T180 521T250 535Q287 535 319 521T376 483T415 427T429 357Q429 320 415 288T377 231T320 192T250 178Q213 178 181 192T124 230T86 287T72 357Z"  />
<glyph unicode="&#x2026;" horiz-adv-x="1000" d="M729 111H840L816 0H705L729 111ZM396 111H507L483 0H372L396 111ZM63 111H174L150 0H39L63 111Z"  />
<glyph unicode="&#x2030;" horiz-adv-x="1074" d="M441 127Q441 112 444 97T455 70T473 51T499 43Q524 43 543 58T575 97T594 146T599 196Q599 211 596 226T585 253T567 272T541 280Q516 280 497 265T465 226T446 177T441 127ZM373 127Q373 167 383 204T416 271T470 317T547 335Q609 335 638 298T667 201Q667 162 657 124T626 56T573 7T495 -12Q461 -12 438 -2T401 27T380 71T373 127ZM539 725H603L168 -28H104L539 725ZM116 501Q116 486 119 471T130 444T148 425T174 417Q199 417 218 432T250 471T269 520T274 570Q274 585 271 600T260 627T242 646T216 654Q191 654 172 639T140 600T121 551T116 501ZM48 501Q48 541 58 578T91 645T145 691T222 709Q284 709 313 672T342 575Q342 536 332 498T301 430T248 381T170 362Q136 362 113 372T76 401T55 445T48 501ZM791 127Q791 112 794 97T805 70T823 51T849 43Q874 43 893 58T925 97T944 146T949 196Q949 211 946 226T935 253T917 272T891 280Q866 280 847 265T815 226T796 177T791 127ZM723 127Q723 167 733 204T766 271T820 317T897 335Q959 335 988 298T1017 201Q1017 162 1007 124T976 56T923 7T845 -12Q811 -12 788 -2T751 27T730 71T723 127Z"  />
<glyph unicode="&#x2039;" horiz-adv-x="259" d="M30 250L52 342L226 442L205 357L85 289L172 199L153 114L30 250Z"  />
<glyph unicode="&#x203A;" horiz-adv-x="259" d="M215 306L193 214L19 114L40 199L160 267L73 357L92 442L215 306Z"  />
<glyph unicode="&#x20AC;" horiz-adv-x="556" d="M544 585Q513 611 480 626T405 641Q361 641 326 626T264 584T216 523T182 450H507L473 391H165L156 334H455L421 275H154Q156 230 166 191T199 123T255 77T340 60Q396 60 438 81T525 133L504 32Q461 7 421 -5T329 -17Q264 -17 216 6T137 68T89 161T72 275H-6L27 334H74L82 391H15L48 450H96Q112 505 140 554T207 640T297 698T409 720Q460 720 502 705T586 660L544 585Z"  />
<glyph unicode="&#x2122;" horiz-adv-x="990" d="M926 302H858V646H856L721 302H678L543 646H541V302H473V714H578L701 401L822 714H926V302ZM390 659H261V302H193V659H64V714H390V659Z"  />

</font>
</defs>
</svg>
